<?xml version="1.0" standalone="no"?>
<!DOCTYPE svg PUBLIC "-//W3C//DTD SVG 1.1//EN" "http://www.w3.org/Graphics/SVG/1.1/DTD/svg11.dtd" >
<svg xmlns="http://www.w3.org/2000/svg" xmlns:xlink="http://www.w3.org/1999/xlink" version="1.1">
<metadata>
Created by FontForge 20170731 at Tue Jan 17 17:53:45 2012
 By Aleksey,,,
Copyright (c) 2011 - 2012 Linotype Corp., www.linotype.com. All rights reserved. This font software may not be reproduced, modified, disclosed or transferred without the express written approval of Linotype Corp. Neue Haas Grotesk is a trademark of Linotype Corp. registered in the U.S. Patent and Trademark Office and may be registered in certain other jurisdictions in the name of Linotype Corp. or its licensee Linotype GmbH. This typeface is original artwork of Christian Schwartz. The design may be protected in certain jurisdictions.
</metadata>
<defs>
<font id="NHaasGroteskTXPro-65Md" horiz-adv-x="500" >
  <font-face 
    font-family="NeueHaasGroteskText Pro Md"
    font-weight="500"
    font-stretch="normal"
    units-per-em="1000"
    panose-1="2 11 6 4 2 2 2 2 2 4"
    ascent="781"
    descent="-219"
    x-height="534"
    cap-height="744"
    bbox="-276 -255 1341 988"
    underline-thickness="50"
    underline-position="-150"
    unicode-range="U+000D-FB04"
  />
<missing-glyph 
 />
    <glyph glyph-name="f_f" unicode="ff" horiz-adv-x="688" 
d="M421 446h-187v-446h-127v446h-82v88h82v54q0 59 24 90t73 42q23 16 59 19.5t80 -0.5v-96q-31 1 -52 -0.5t-33.5 -8t-18 -19.5t-5.5 -35v-46h187v59q0 59 24 90t73 42q23 15 59.5 19t81.5 -1v-95q-32 1 -53 -0.5t-34 -8t-18.5 -19.5t-5.5 -35v-51h110v-88h-110v-446h-127
v446z" />
    <glyph glyph-name="fi" unicode="fi" horiz-adv-x="605" 
d="M25 534h82v59q0 85 50 119q22 18 55.5 26t75.5 8q27 0 57 -3v-95q-32 1 -53 -0.5t-34 -8t-18.5 -19.5t-5.5 -35v-51h110v-88h-110v-446h-127v446h-82v88zM421 534h126v-534h-126v534zM419 744h130v-123h-130v123z" />
    <glyph glyph-name="fl" unicode="fl" horiz-adv-x="608" 
d="M25 534h82v59q0 85 50 119q22 18 55.5 26.5t75.5 7.5q27 0 57 -3v-95q-32 1 -53 -0.5t-34 -8t-18.5 -19.5t-5.5 -35v-51h110v-88h-110v-446h-127v446h-82v88zM421 744h127v-744h-127v744z" />
    <glyph glyph-name="f_f_i" unicode="ffi" horiz-adv-x="919" 
d="M421 446h-187v-446h-127v446h-82v88h82v54q0 59 24 90t73 42q23 16 59 19.5t80 -0.5v-96q-31 1 -52 -0.5t-33.5 -8t-18 -19.5t-5.5 -35v-46h187v59q0 59 24 90t73 42q23 15 59.5 19t81.5 -1v-95q-32 1 -53 -0.5t-34 -8t-18.5 -19.5t-5.5 -35v-51h110v-88h-110v-446h-127
v446zM735 534h126v-534h-126v534zM733 744h130v-123h-130v123z" />
    <glyph glyph-name="f_f_l" unicode="ffl" horiz-adv-x="922" 
d="M421 446h-187v-446h-127v446h-82v88h82v54q0 59 24 90t73 42q23 16 59 19.5t80 -0.5v-96q-31 1 -52 -0.5t-33.5 -8t-18 -19.5t-5.5 -35v-46h187v59q0 59 24 90t73 42q23 15 59.5 19t81.5 -1v-95q-32 1 -53 -0.5t-34 -8t-18.5 -19.5t-5.5 -35v-51h110v-88h-110v-446h-127
v446zM735 744h127v-744h-127v744z" />
    <glyph glyph-name=".notdef" 
 />
    <glyph glyph-name=".null" horiz-adv-x="0" 
 />
    <glyph glyph-name=".null" horiz-adv-x="0" 
 />
    <glyph glyph-name="nonmarkingreturn" unicode="&#xd;" horiz-adv-x="0" 
 />
    <glyph glyph-name="tcommaaccent" horiz-adv-x="371" 
d="M26 534h82v170h125v-170h107v-87h-107v-299q0 -29 15 -39.5t42 -10.5q10 0 21.5 1t19.5 3h6v-99q-16 -3 -37 -5.5t-47 -2.5q-32 0 -59 6.5t-46 21t-29.5 38.5t-10.5 59v327h-82v87zM279 -131q0 -62 -37.5 -91t-95.5 -33v49q29 5 46 18t17 37h-61v100h131v-80z" />
    <glyph glyph-name="space" unicode=" " horiz-adv-x="253" 
 />
    <glyph glyph-name="exclam" unicode="!" horiz-adv-x="277" 
d="M71 536v208h134v-208l-33 -297h-67zM69 139h140v-139h-140v139z" />
    <glyph glyph-name="quotedbl" unicode="&#x22;" horiz-adv-x="405" 
d="M242 744h111v-268h-111v268zM52 744h113v-268h-113v268z" />
    <glyph glyph-name="numbersign" unicode="#" horiz-adv-x="631" 
d="M90 530h100l28 183h88l-28 -183h126l28 183h87l-28 -183h103l-17 -100h-101l-21 -136h102l-17 -101h-100l-29 -193h-88l29 193h-125l-29 -193h-88l29 193h-102l17 101h100l21 136h-102zM242 294h126l21 136h-126z" />
    <glyph glyph-name="dollar" unicode="$" horiz-adv-x="652" 
d="M299 -7q-66 4 -116 24t-83 51t-50.5 71.5t-19.5 87.5h131q7 -57 39.5 -90t98.5 -41v219q-1 0 -2 1q-51 12 -95 26t-76.5 36.5t-51 57t-18.5 87.5q0 46 18 82t50.5 61.5t77 39.5t97.5 16v77h62v-78q108 -8 167.5 -58.5t67.5 -138.5h-126q-12 83 -109 98v-202
q52 -12 98 -26.5t80 -38t53.5 -59t19.5 -89.5q0 -49 -19 -87.5t-53 -66t-79.5 -42.5t-99.5 -18v-110h-62v110zM481 200q0 22 -8 37.5t-23 26.5t-37.5 19.5t-51.5 16.5v-205q25 3 46.5 11t38 21.5t26 31.5t9.5 41zM185 529q0 -38 27.5 -58.5t86.5 -36.5v190
q-53 -5 -83.5 -29.5t-30.5 -65.5z" />
    <glyph glyph-name="percent" unicode="%" horiz-adv-x="915" 
d="M213 314q-39 0 -72 14.5t-56.5 41.5t-37 65.5t-13.5 85.5t13.5 85.5t37.5 65.5t56.5 41.5t71.5 14.5t71.5 -14.5t56.5 -41t37 -65t13 -86.5q0 -47 -13 -85.5t-36.5 -65.5t-56.5 -41.5t-72 -14.5zM613 712h85l-397 -712h-84zM701 -17q-39 0 -72 15t-56.5 42t-37 65.5
t-13.5 85.5t13.5 85.5t37.5 65.5t57 41.5t71 14.5q39 0 72 -14.5t57 -41.5t37.5 -65t13.5 -86q0 -47 -13 -85.5t-37 -65.5t-57 -42t-73 -15zM213 391q39 0 58 36.5t19 93.5q0 56 -19.5 94t-57.5 38t-56.5 -37t-18.5 -95q0 -57 18.5 -93.5t56.5 -36.5zM702 61q39 0 57.5 36.5
t18.5 93.5t-19.5 94.5t-56.5 37.5q-38 0 -57 -37.5t-19 -94.5t19 -93.5t57 -36.5z" />
    <glyph glyph-name="ampersand" unicode="&#x26;" horiz-adv-x="694" 
d="M288 -14q-55 0 -101.5 15t-80 42.5t-52.5 67t-19 87.5q0 43 13 76t36 59.5t54 47t66 39.5l-2 3q-33 38 -50.5 77.5t-17.5 85.5q0 36 14 66.5t39 53t59.5 35t76.5 12.5q39 0 73 -11t59.5 -32.5t40 -53t14.5 -71.5q0 -35 -11.5 -62.5t-30.5 -49.5t-44.5 -40t-53.5 -33
l12 -14q4 -6 17.5 -23.5t30.5 -39.5l34 -44t29 -38q12 29 19 61t10 66h111q-3 -58 -19.5 -112t-46.5 -102l123 -154h-155l-34 43l-13 17q-41 -33 -91 -53.5t-109 -20.5zM291 92q38 0 71 13t61 36l-160 204q-46 -29 -71.5 -63.5t-25.5 -81.5q0 -24 10 -44t27 -34t39.5 -22
t48.5 -8zM252 588q0 -31 15.5 -57t41.5 -53l6 -8q42 25 60 53t18 62q0 33 -19 53.5t-50 20.5q-32 0 -52 -20t-20 -51z" />
    <glyph glyph-name="quotesingle" unicode="'" horiz-adv-x="217" 
d="M52 744h113v-268h-113v268z" />
    <glyph glyph-name="parenleft" unicode="(" horiz-adv-x="353" 
d="M230 -134q-33 44 -62.5 94.5t-51 108t-34 122t-12.5 136.5q0 71 13 136.5t34.5 123.5t50.5 107.5t62 89.5h104q-56 -89 -92 -202.5t-36 -254.5q0 -140 35.5 -251.5t92.5 -209.5h-104v0z" />
    <glyph glyph-name="parenright" unicode=")" horiz-adv-x="353" 
d="M19 -134q29 49 53 101t41 108.5t26.5 119t9.5 132.5q0 142 -36.5 254.5t-93.5 202.5h105q33 -40 62 -89.5t50.5 -107.5t34.5 -123.5t13 -136.5q0 -72 -12.5 -136.5t-34 -122t-51 -108t-62.5 -94.5h-105v0z" />
    <glyph glyph-name="asterisk" unicode="*" horiz-adv-x="443" 
d="M85 442l74 104l-117 38l28 69l112 -37v128h80v-128l111 37l26 -69l-115 -38l75 -104l-62 -44l-74 110l-76 -110z" />
    <glyph glyph-name="plus" unicode="+" horiz-adv-x="604" 
d="M58 391h190v200h108v-200h190v-101h-190v-200h-108v200h-190v101z" />
    <glyph glyph-name="comma" unicode="," horiz-adv-x="236" 
d="M50 -107q29 8 46.5 31.5t17.5 69.5v6h-65v139h139v-138q0 -82 -38 -122.5t-100 -47.5v62z" />
    <glyph glyph-name="hyphen" unicode="-" horiz-adv-x="368" 
d="M44 330h280v-112h-280v112z" />
    <glyph glyph-name="period" unicode="." horiz-adv-x="236" 
d="M49 139h139v-139h-139v139z" />
    <glyph glyph-name="slash" unicode="/" horiz-adv-x="453" 
d="M326 784h120l-347 -918h-120z" />
    <glyph glyph-name="zero" unicode="0" horiz-adv-x="680" 
d="M339 -17q-67 0 -121.5 26.5t-93 75t-59.5 117.5t-21 154t21.5 154t60.5 117.5t93.5 74.5t120.5 26q67 0 122 -26t93.5 -74t59.5 -117t21 -155q0 -85 -20.5 -154t-59 -117.5t-93.5 -75t-124 -26.5zM340 91q42 0 72.5 18.5t50 53t28.5 83.5t9 110q0 60 -9.5 109t-29 84
t-49.5 54t-72 19q-41 0 -71.5 -19t-50 -53.5t-29 -84t-9.5 -109.5t9.5 -109t29 -83.5t50 -53.5t71.5 -19z" />
    <glyph glyph-name="one" unicode="1" horiz-adv-x="417" 
d="M202 487h-165v88q37 1 69.5 9.5t58 25.5t43 43.5t23.5 64.5h103v-718h-132v487z" />
    <glyph glyph-name="two" unicode="2" horiz-adv-x="604" 
d="M35 0q2 66 22 112.5t54 84.5q45 50 103.5 89t111.5 74q25 16 44.5 30.5t33 31t20.5 36t7 43.5q0 54 -32.5 86.5t-89.5 32.5q-62 0 -95 -38q-36 -39 -36 -116h-129q0 57 14 99t42 77q32 40 85.5 62.5t125.5 22.5q58 0 104.5 -17t78.5 -47t49 -70.5t17 -88.5
q0 -39 -10.5 -69t-29 -54t-44 -44.5t-54.5 -39.5q-28 -21 -59.5 -41.5t-62 -42t-56.5 -44.5t-42 -50v-5h352v-114h-524v0z" />
    <glyph glyph-name="three" unicode="3" horiz-adv-x="625" 
d="M319 -17q-128 0 -208 63q-41 33 -62.5 81t-22.5 106h126q3 -65 43.5 -105t118.5 -40q64 0 102 31.5t38 92.5q0 57 -40 86t-114 29h-44v95h41q67 0 102.5 27t35.5 76q0 48 -34.5 75.5t-88.5 27.5q-34 0 -59.5 -10.5t-43 -28t-26.5 -41t-10 -50.5h-125q1 49 19 91.5t52 73
t83.5 48t112.5 17.5q54 0 99.5 -13.5t79 -39t52.5 -62.5t19 -83q0 -58 -33 -93t-87 -53v-2q143 -40 143 -180q0 -54 -21.5 -95t-58 -68.5t-85.5 -41.5t-104 -14z" />
    <glyph glyph-name="four" unicode="4" horiz-adv-x="640" 
d="M387 167h-339v117l347 436h120v-454h110v-99h-110v-167h-128v167zM142 261q19 1 37 2q16 1 34 2t33 1h141v204q0 15 0.5 33t1.5 35q1 19 3 39h-2l-22 -34q-10 -14 -21.5 -31t-22.5 -31l-102 -129q-11 -14 -25 -29t-26 -29q-14 -16 -29 -31v-2z" />
    <glyph glyph-name="five" unicode="5" horiz-adv-x="611" 
d="M303 -16q-59 0 -108 15.5t-85 43.5t-57.5 67.5t-25.5 86.5h130q10 -47 45 -75.5t97 -28.5q64 0 103 39.5t39 104.5q0 33 -10.5 59.5t-29.5 45t-44 28t-53 9.5q-48 0 -81 -16.5t-51 -39.5h-125l76 389h408v-109h-314l-39 -183h2q28 29 65 45t91 16q47 0 90 -17t76 -48.5
t53 -77t20 -102.5q0 -58 -20.5 -104.5t-56.5 -79.5t-86 -50.5t-109 -17.5z" />
    <glyph glyph-name="six" unicode="6" horiz-adv-x="640" 
d="M339 -17q-68 0 -119 22.5t-86 61.5q-48 51 -68.5 122t-20.5 167q-1 85 18 155t59 121q38 47 90.5 71.5t125.5 24.5q55 0 97.5 -15t72.5 -40.5t48.5 -59t24.5 -69.5h-128q-3 15 -11 30.5t-22 27.5t-34 19.5t-46 7.5q-85 0 -125 -64.5t-45 -185.5h2q32 50 77 75t107 25
q50 0 94.5 -18.5t78 -51.5t53 -78t19.5 -98q0 -54 -20 -99.5t-55 -79t-83 -52.5t-104 -19zM335 84q30 0 56 11t45 30.5t30 46t11 58.5q0 33 -11 60t-30 46.5t-45.5 30t-56.5 10.5q-33 0 -61 -10.5t-47.5 -30t-30.5 -46t-11 -59.5q0 -32 11.5 -59t32 -46.5t48 -30.5t59.5 -11
z" />
    <glyph glyph-name="seven" unicode="7" horiz-adv-x="566" 
d="M129 0q5 95 30.5 184.5t65 167.5t88.5 142t101 108v2q-22 -2 -47 -3q-21 -1 -48.5 -1.5t-56.5 -0.5h-232v113h513v-103q-51 -48 -99 -112t-85.5 -141.5t-62 -167t-28.5 -188.5h-139v0z" />
    <glyph glyph-name="eight" unicode="8" horiz-adv-x="638" 
d="M321 -17q-58 0 -110 13.5t-91 41t-62 69t-23 96.5q0 69 39.5 115.5t108.5 66.5v3q-57 19 -86 57t-29 91q0 43 18.5 78.5t51.5 61t79 39t102 13.5t102 -13t79 -38t51.5 -60t18.5 -79q0 -52 -28.5 -90.5t-85.5 -57.5v-3q70 -18 108.5 -66t38.5 -115q0 -56 -22.5 -98
t-61 -70t-89.5 -41.5t-109 -13.5zM319 429q60 0 92.5 27t32.5 74t-32.5 74.5t-92.5 27.5t-93 -27.5t-33 -74.5t33 -74t93 -27zM321 85q69 0 109 33.5t40 90.5q0 60 -39.5 94.5t-110.5 34.5t-111 -34.5t-40 -94.5q0 -58 40 -91t112 -33z" />
    <glyph glyph-name="nine" unicode="9" horiz-adv-x="641" 
d="M313 -17q-55 0 -100.5 15t-78.5 40.5t-53 60.5t-25 74h129q3 -17 12.5 -33t25 -29t37 -20.5t50.5 -7.5q75 0 114 54q23 29 34.5 75.5t14.5 112.5h-2q-33 -43 -77.5 -67.5t-104.5 -24.5q-52 0 -97.5 18.5t-79 51.5t-53 78t-19.5 99q0 53 20 98.5t56 78.5t85 52t107 19
t104.5 -17t81.5 -46q56 -46 79.5 -121.5t23.5 -186.5q0 -99 -21 -175.5t-69 -124.5q-35 -36 -83 -55t-111 -19zM310 334q68 0 109 40.5t41 106.5q0 32 -11.5 59t-31.5 46.5t-47.5 30t-58.5 10.5q-33 0 -60 -11t-46.5 -30.5t-30 -46t-10.5 -58.5t11 -59t30.5 -46.5t46 -30.5
t58.5 -11z" />
    <glyph glyph-name="colon" unicode=":" horiz-adv-x="243" 
d="M52 457h139v-138h-139v138zM52 139h139v-139h-139v139z" />
    <glyph glyph-name="semicolon" unicode=";" horiz-adv-x="243" 
d="M52 457h139v-138h-139v138zM53 -107q29 8 46.5 31.5t17.5 69.5v6h-65v139h139v-138q0 -82 -38 -122.5t-100 -47.5v62z" />
    <glyph glyph-name="less" unicode="&#x3c;" horiz-adv-x="544" 
d="M57 263v119l425 180v-113l-197 -78q-21 -8 -45 -16.5t-45 -15.5q-25 -8 -49 -16v-2q24 -7 49 -15q21 -7 45.5 -14.5t44.5 -15.5l197 -77v-116z" />
    <glyph glyph-name="equal" unicode="=" horiz-adv-x="602" 
d="M62 474h480v-99h-480v99zM62 273h480v-99h-480v99z" />
    <glyph glyph-name="greater" unicode="&#x3e;" horiz-adv-x="544" 
d="M487 382v-119l-425 -180v112l198 79q20 8 44.5 16.5t45.5 15.5q25 8 49 16v2q-24 7 -49 15q-21 7 -45.5 14.5t-44.5 15.5l-198 77v116z" />
    <glyph glyph-name="question" unicode="?" horiz-adv-x="565" 
d="M196 139h139v-139h-139v139zM209 239q0 34 5 60t16 47.5t28 41t41 40.5q17 15 34.5 28t31.5 28t23 32.5t9 40.5q0 41 -30 66.5t-82 25.5q-63 0 -98 -37.5t-37 -94.5h-127q1 48 18.5 91.5t51 76.5t82.5 52.5t114 19.5q56 0 100.5 -14.5t76 -41t48.5 -62.5t17 -79
q0 -29 -7 -53t-18.5 -43.5t-26.5 -35t-31 -28.5q-37 -29 -62 -47.5t-39 -35.5q-13 -16 -17.5 -33.5t-5.5 -44.5h-115z" />
    <glyph glyph-name="at" unicode="@" horiz-adv-x="942" 
d="M424 97q-38 0 -68 13.5t-51.5 38t-33 59.5t-11.5 78q0 54 14.5 98.5t41 76.5t62.5 49.5t79 17.5q44 0 72.5 -19.5t42.5 -54.5h2l7 64h112l-33 -270q-9 -75 46 -75q19 0 38.5 8.5t35.5 29t26 55t10 86.5q0 78 -24.5 136.5t-68 97.5t-104 58.5t-132.5 19.5
q-73 0 -137.5 -25t-113 -72t-77 -116t-28.5 -156q0 -72 21.5 -132.5t63.5 -104.5t103.5 -69t141.5 -25q52 0 99.5 10t92.5 28l28 -69q-52 -25 -105.5 -35.5t-112.5 -10.5q-92 0 -169.5 29t-133.5 82.5t-87.5 129t-31.5 167.5q0 108 38 191.5t100 140.5t142.5 86.5
t166.5 29.5q82 0 157 -25t132 -74.5t91 -122.5t34 -168q0 -64 -15.5 -112t-43 -80.5t-64.5 -49t-80 -16.5q-52 0 -88 21.5t-48 63.5h-2q-45 -83 -137 -83zM453 183q52 0 79.5 43.5t27.5 111.5q0 48 -20.5 75.5t-61.5 27.5q-25 0 -44 -11.5t-31.5 -32t-19 -48.5t-6.5 -61
q0 -46 18 -75.5t58 -29.5z" />
    <glyph glyph-name="A" unicode="A" horiz-adv-x="718" 
d="M284 744h148l271 -744h-148l-59 177h-282l-60 -177h-140zM248 279h214l-57 172q-11 33 -19.5 64.5t-14.5 57.5q-7 30 -13 57h-2q-8 -31 -16 -63q-7 -27 -15.5 -58.5t-17.5 -57.5z" />
    <glyph glyph-name="B" unicode="B" horiz-adv-x="701" 
d="M70 744h337q116 0 175 -57q57 -52 57 -136q0 -115 -122 -152v-3q70 -17 111 -63t41 -117q0 -50 -17 -88.5t-49 -65.5q-32 -30 -78.5 -46t-106.5 -16h-348v744zM387 437q54 0 85.5 25.5t31.5 73.5q0 46 -29.5 71.5t-80.5 25.5h-187v-196h180zM406 113q32 0 55.5 8.5
t38.5 23.5q30 28 30 76q0 57 -36 85t-92 28h-195v-221h199z" />
    <glyph glyph-name="C" unicode="C" horiz-adv-x="752" 
d="M398 -16q-81 0 -147 29t-113 80.5t-72.5 122t-25.5 154.5q0 83 25 154t71.5 123t113 81.5t149.5 29.5q64 0 116 -16t90 -45q45 -35 71.5 -84t33.5 -108h-138q-10 60 -55 98t-119 38q-53 0 -93.5 -20.5t-68 -57t-41.5 -86t-14 -107.5q0 -59 15.5 -108.5t44 -85t68.5 -55.5
t90 -20q42 0 74 13t54.5 35.5t35.5 52t16 63.5h139q-2 -56 -26.5 -108.5t-63.5 -90.5q-82 -82 -230 -82z" />
    <glyph glyph-name="D" unicode="D" horiz-adv-x="741" 
d="M71 744h293q81 0 143.5 -27t106 -76.5t66 -118.5t22.5 -154q0 -83 -22.5 -151t-66 -116t-108.5 -74.5t-149 -26.5h-285v744zM347 118q110 0 161.5 66.5t51.5 183.5q0 58 -12 105.5t-37.5 81.5t-65 52.5t-94.5 18.5h-141v-508h137z" />
    <glyph glyph-name="E" unicode="E" horiz-adv-x="668" 
d="M70 744h544v-118h-406v-184h359v-111h-359v-210h415v-121h-553v744z" />
    <glyph glyph-name="F" unicode="F" horiz-adv-x="632" 
d="M70 744h528v-119h-390v-191h325v-115h-325v-319h-138v744z" />
    <glyph glyph-name="G" unicode="G" horiz-adv-x="783" 
d="M617 102h-4q-36 -61 -93.5 -90t-127.5 -29q-79 0 -143 28t-110 78q-48 52 -73 123t-25 157q0 91 29 166.5t84 128.5q45 45 106.5 69.5t141.5 24.5q68 0 122 -17.5t93.5 -48.5t64.5 -75t35 -96h-140q-15 52 -57 86.5t-116 34.5q-57 0 -98.5 -21t-69 -58t-41 -86.5
t-13.5 -107.5q0 -60 16 -109.5t45 -85t70 -55.5t91 -20q47 0 82.5 15t60 39.5t37 57t12.5 68.5v9h-180v108h313v-396h-93z" />
    <glyph glyph-name="H" unicode="H" horiz-adv-x="745" 
d="M70 744h138v-299h329v299h139v-744h-139v330h-329v-330h-138v744z" />
    <glyph glyph-name="I" unicode="I" horiz-adv-x="280" 
d="M70 744h139v-744h-139v744z" />
    <glyph glyph-name="J" unicode="J" horiz-adv-x="560" 
d="M268 -14q-118 0 -179 61.5t-61 179.5v38h130v-34q0 -74 26.5 -102.5t78.5 -28.5q98 0 98 110v534h139v-539q0 -94 -50 -148q-29 -33 -74.5 -52t-107.5 -19z" />
    <glyph glyph-name="K" unicode="K" horiz-adv-x="713" 
d="M70 744h138v-172q0 -45 -1.5 -87t-3.5 -71l316 330h168l-292 -298l313 -446h-162l-250 357l-88 -89v-268h-138v744z" />
    <glyph glyph-name="L" unicode="L" horiz-adv-x="600" 
d="M70 744h138v-623h362v-121h-500v744z" />
    <glyph glyph-name="M" unicode="M" horiz-adv-x="883" 
d="M70 744h183l122 -354q11 -33 22 -76t21 -82l22 -92h3q10 46 21 92q9 38 20.5 81.5t22.5 76.5l120 354h187v-744h-129v388q0 30 1 70t3 76q2 42 5 86h-2q-9 -40 -19 -78q-8 -33 -17.5 -69t-18.5 -64l-141 -409h-112l-142 409q-9 28 -19 64t-18 69q-10 38 -18 78h-2
q2 -44 4 -86q2 -36 3.5 -76t1.5 -70v-388h-124v744z" />
    <glyph glyph-name="N" unicode="N" horiz-adv-x="747" 
d="M70 744h142l247 -390q15 -25 31 -55t30 -56l32 -62h3q-2 34 -4 67q-2 29 -3 62t-1 61v373h131v-744h-142l-246 388q-16 25 -32 55.5t-30 56.5l-32 62h-2q1 -34 3 -67q2 -29 3 -62t1 -61v-372h-131v744z" />
    <glyph glyph-name="O" unicode="O" horiz-adv-x="812" 
d="M406 -17q-84 0 -152 29t-115.5 81t-73 123t-25.5 154q0 84 25.5 155t73 122.5t115.5 81t152 29.5t152 -29.5t115.5 -81t73 -122.5t25.5 -155q0 -83 -25.5 -154t-73 -123t-115.5 -81t-152 -29zM407 100q55 0 97 20.5t70 56.5t42 85.5t14 107.5t-14 108t-42 87t-70 58
t-97 21q-56 0 -98 -21t-70.5 -58t-43 -87t-14.5 -108t14.5 -107.5t43 -85.5t70.5 -56.5t98 -20.5z" />
    <glyph glyph-name="P" unicode="P" horiz-adv-x="668" 
d="M70 744h322q63 0 110.5 -18t78.5 -52q30 -32 46.5 -72.5t16.5 -90.5q0 -53 -16.5 -95.5t-48 -72.5t-77 -46.5t-104.5 -16.5h-188v-280h-140v744zM210 391h166q64 0 96.5 32t32.5 86q0 57 -33 86.5t-94 29.5h-168v-234z" />
    <glyph glyph-name="Q" unicode="Q" horiz-adv-x="811" 
d="M596 31q-40 -23 -87.5 -35.5t-102.5 -12.5q-85 0 -152.5 29t-115 81t-73 123t-25.5 154q0 84 25.5 155t73 122.5t115 81t152.5 29.5q84 0 152 -29.5t115 -81t72.5 -122.5t25.5 -155q0 -85 -25.5 -155.5t-73.5 -122.5l98 -85l-64 -71zM406 97q52 0 93 18l-92 81l63 72
l105 -92q27 37 40.5 86t13.5 108q0 58 -14 108t-42 87t-70 58t-97 21q-56 0 -98 -21t-70 -58t-42.5 -87t-14.5 -108t14.5 -108t42.5 -86.5t70 -57.5t98 -21z" />
    <glyph glyph-name="R" unicode="R" horiz-adv-x="708" 
d="M70 744h351q52 0 96 -14.5t75.5 -41.5t49.5 -65.5t18 -87.5q0 -67 -32 -114t-105 -70v-3q59 -18 84.5 -55t31.5 -106q9 -82 13.5 -127t19.5 -53v-7h-140q-14 9 -17.5 52t-9.5 118q-6 66 -38.5 96t-99.5 30h-159v-296h-138v744zM208 402h180q66 0 99.5 30.5t33.5 82.5
q0 56 -30.5 86t-97.5 30h-185v-229z" />
    <glyph glyph-name="S" unicode="S" horiz-adv-x="682" 
d="M353 -17q-77 0 -136.5 18.5t-100.5 52t-63.5 80.5t-24.5 104h139q15 -144 187 -144q30 0 57 6.5t47.5 20t32 34t11.5 48.5q0 30 -13.5 49.5t-38.5 33t-60.5 23t-79.5 19.5q-52 12 -98.5 26t-81 38t-55 60.5t-20.5 92.5q0 53 20.5 92.5t57.5 66t87 40t110 13.5
q131 0 203.5 -58.5t83.5 -161.5h-135q-8 55 -48 84.5t-106 29.5q-63 0 -100.5 -24.5t-37.5 -69.5q0 -26 13 -43t37.5 -29t59 -21t77.5 -18q52 -11 99.5 -26t84.5 -40.5t59 -65.5t22 -100q0 -56 -22 -99t-60.5 -72t-91.5 -44.5t-115 -15.5z" />
    <glyph glyph-name="T" unicode="T" horiz-adv-x="661" 
d="M29 744h604v-119h-233v-625h-139v625h-232v119z" />
    <glyph glyph-name="U" unicode="U" horiz-adv-x="715" 
d="M358 -13q-139 0 -218.5 65.5t-79.5 198.5v493h138v-491q0 -151 161 -151q76 0 117 39t41 114v489h139v-493q0 -66 -21 -115.5t-59.5 -82.5t-93.5 -49.5t-124 -16.5z" />
    <glyph glyph-name="V" unicode="V" horiz-adv-x="678" 
d="M13 744h146l135 -422q8 -26 16 -59t15 -62q8 -34 16 -70h2q8 36 16 70q7 29 15 62t16 59l133 422h142l-253 -744h-148z" />
    <glyph glyph-name="W" unicode="W" horiz-adv-x="983" 
d="M13 744h142l88 -360q8 -35 15.5 -77t12.5 -79q6 -43 11 -87h2q7 45 15 90q7 38 14.5 80.5t15.5 76.5l91 356h136l90 -355q8 -34 15.5 -77t13.5 -81l14 -90h2q6 44 13 88q6 38 13.5 79.5t16.5 76.5l88 359h142l-206 -744h-135l-95 389q-8 29 -15 67.5t-12 73.5
q-6 40 -12 82h-2q-6 -42 -12 -82q-5 -35 -12 -73.5t-14 -67.5l-100 -389h-138z" />
    <glyph glyph-name="X" unicode="X" horiz-adv-x="701" 
d="M272 386l-233 358h159l84 -137q11 -20 23.5 -43.5t23.5 -44.5q12 -25 24 -49h2q13 24 25 49q11 21 23.5 44.5t25.5 43.5l84 137h152l-233 -358l249 -386h-164l-95 160q-12 20 -24.5 44.5t-23.5 45.5q-12 25 -23 49h-2q-12 -24 -25 -49q-11 -21 -24.5 -45.5t-25.5 -44.5
l-98 -160h-157z" />
    <glyph glyph-name="Y" unicode="Y" horiz-adv-x="692" 
d="M275 294l-261 450h153l105 -188q12 -23 25 -50.5t24 -51.5q12 -28 25 -57h2q12 29 25 57q11 24 24 51.5t26 50.5l106 188h147l-262 -452v-292h-139v294z" />
    <glyph glyph-name="Z" unicode="Z" horiz-adv-x="679" 
d="M37 118l316 394q14 18 33 38.5t36 37.5q19 20 39 40v3l-52 -2q-23 -1 -48.5 -1.5t-45.5 -0.5h-251v117h557v-109l-308 -389q-17 -20 -37 -42.5t-38 -41.5q-21 -23 -43 -44v-3q28 1 55 2q23 1 49.5 2t48.5 1h288v-120h-599v118z" />
    <glyph glyph-name="bracketleft" unicode="[" horiz-adv-x="394" 
d="M78 784h273v-100h-149v-717h149v-101h-273v918z" />
    <glyph glyph-name="backslash" unicode="\" horiz-adv-x="453" 
d="M354 -134l-346 918h120l346 -918h-120z" />
    <glyph glyph-name="bracketright" unicode="]" horiz-adv-x="394" 
d="M42 -33h148v717h-148v100h273v-918h-273v101z" />
    <glyph glyph-name="asciicircum" unicode="^" horiz-adv-x="497" 
d="M192 744h113l175 -303h-124l-106 189h-2l-108 -189h-123z" />
    <glyph glyph-name="underscore" unicode="_" horiz-adv-x="437" 
d="M-2 -90h441v-85h-441v85z" />
    <glyph glyph-name="grave" unicode="`" horiz-adv-x="538" 
d="M125 772h151l53 -154h-98z" />
    <glyph glyph-name="a" unicode="a" horiz-adv-x="566" 
d="M404 0q-7 9 -11.5 25.5t-6.5 43.5h-2q-26 -35 -65 -58.5t-103 -23.5q-39 0 -72.5 10t-57.5 30t-38 49.5t-14 68.5q0 45 16.5 74.5t45.5 47.5t69 27.5t88 15.5q66 8 99 22.5t33 50.5q0 35 -24 56t-72 21q-54 0 -80.5 -23t-28.5 -63h-120q1 34 15.5 65.5t43 55.5t70.5 38.5
t99 14.5q46 0 81.5 -7t61.5 -24q76 -46 76 -152v-281q0 -33 5.5 -51t14.5 -24v-9h-123zM253 74q33 0 58 10.5t42 27t26 38t9 44.5v79q-19 -12 -47 -20.5t-57 -14.5q-59 -11 -91 -28.5t-32 -61.5q0 -21 7.5 -35.5t20 -23t29.5 -12t35 -3.5z" />
    <glyph glyph-name="b" unicode="b" horiz-adv-x="608" 
d="M348 -17q-54 0 -97 23t-67 71h-3v-77h-123v744h127v-176q0 -32 -1 -62t-3 -51h3q26 42 67 67.5t98 25.5q51 0 93.5 -20t72.5 -57t46.5 -89t16.5 -116q0 -65 -16 -117.5t-46 -89.5t-72.5 -56.5t-95.5 -19.5zM321 87q64 0 96 50t32 130q0 39 -8 72.5t-24 58t-40 38
t-56 13.5q-36 0 -63 -14.5t-44 -39t-25.5 -58t-8.5 -71.5q0 -39 9 -72t27 -56.5t44 -37t61 -13.5z" />
    <glyph glyph-name="c" unicode="c" horiz-adv-x="569" 
d="M302 -16q-62 0 -112 22t-85.5 60t-54.5 89.5t-19 110.5q0 60 19 111.5t54 89.5t84.5 59.5t111.5 21.5q51 0 92.5 -14t72 -39t50 -60.5t26.5 -78.5h-124q-9 44 -38.5 69.5t-77.5 25.5q-35 0 -61.5 -13.5t-44 -38.5t-26.5 -59t-9 -74q0 -39 9 -72.5t26.5 -58t44 -38.5
t61.5 -14q53 0 83.5 29t35.5 82h124q-3 -47 -21 -85.5t-49.5 -66t-74.5 -43t-97 -15.5z" />
    <glyph glyph-name="d" unicode="d" horiz-adv-x="610" 
d="M263 -17q-53 0 -96 19.5t-73 56.5t-46.5 89.5t-16.5 117.5q0 64 17 116t48 89t73.5 57t93.5 20q56 0 97 -24.5t67 -66.5h2q-2 22 -3 51.5t-1 59.5v176h127v-744h-123v78h-2q-25 -47 -67 -71t-97 -24zM289 87q35 0 61.5 13t44 37t26.5 57t9 72q0 40 -9 73.5t-26.5 58
t-44 38t-61.5 13.5q-32 0 -56.5 -13.5t-40.5 -38t-24 -58t-8 -72.5q0 -80 32 -130t97 -50z" />
    <glyph glyph-name="e" unicode="e" horiz-adv-x="587" 
d="M303 -16q-64 0 -114.5 22t-85.5 60t-53.5 89.5t-18.5 110.5q0 60 19 111.5t54 89.5t84 59.5t108 21.5t104.5 -19.5t79.5 -55.5q39 -42 58 -102.5t18 -135.5h-399q7 -69 43.5 -111.5t103.5 -42.5q46 0 75.5 18.5t42.5 51.5h124q-10 -36 -30.5 -66.5t-51.5 -53t-71.5 -35
t-89.5 -12.5zM296 456q-63 0 -96 -39t-41 -102h266q-4 66 -37.5 103.5t-91.5 37.5z" />
    <glyph glyph-name="f" unicode="f" horiz-adv-x="374" 
d="M25 534h82v59q0 79 41 116q23 20 58.5 29t81.5 8q27 0 57 -3v-95q-32 1 -53 -0.5t-34 -8t-18.5 -19.5t-5.5 -35v-51h110v-88h-110v-446h-127v446h-82v88z" />
    <glyph glyph-name="g" unicode="g" horiz-adv-x="605" 
d="M295 -186q-108 0 -171 41.5t-73 117.5h122q13 -66 120 -66q129 0 129 117v13q0 22 0.5 41t1.5 33h-3q-25 -40 -61 -61t-90 -21q-49 0 -91.5 18t-74 51t-49.5 80.5t-18 107.5t17.5 108.5t47.5 82.5t71.5 52.5t89.5 18.5q111 0 158 -83h2v69h123v-499q0 -57 -17.5 -98
t-49.5 -69q-33 -28 -80 -41t-104 -13zM293 127q36 0 61.5 12.5t41.5 34t23.5 51.5t7.5 65q0 72 -33 115.5t-102 43.5q-63 0 -96 -43.5t-33 -117.5t33.5 -117.5t96.5 -43.5z" />
    <glyph glyph-name="h" unicode="h" horiz-adv-x="589" 
d="M185 544q0 -11 -0.5 -37.5t-1.5 -49.5h3q27 43 67.5 67t97.5 24q87 0 135.5 -49.5t48.5 -136.5v-362h-127v341q0 48 -26.5 75t-75.5 27q-27 0 -49 -9.5t-38 -27t-25 -41.5t-9 -52v-313h-127v744h127v-200v0z" />
    <glyph glyph-name="i" unicode="i" horiz-adv-x="242" 
d="M56 744h130v-123h-130v123zM58 534h127v-534h-127v534z" />
    <glyph glyph-name="j" unicode="j" horiz-adv-x="243" 
d="M42 -176q-19 0 -38.5 2t-33.5 5v93h5q9 0 17 -0.5t16 0.5q25 2 37.5 13t12.5 40v557h127v-562q0 -46 -10.5 -72.5t-27.5 -42.5q-20 -18 -46.5 -25.5t-58.5 -7.5zM56 744h130v-123h-130v123z" />
    <glyph glyph-name="k" unicode="k" horiz-adv-x="568" 
d="M247 256l-63 -63v-193h-126v744h126v-288q0 -38 -1.5 -73t-2.5 -58l201 209h151l-196 -195l219 -339h-148z" />
    <glyph glyph-name="l" unicode="l" horiz-adv-x="247" 
d="M60 744h128v-744h-128v744z" />
    <glyph glyph-name="m" unicode="m" horiz-adv-x="883" 
d="M58 534h123v-81h3q26 45 65.5 70t94.5 25q51 0 87.5 -25t54.5 -75h2q32 52 75 76t93 24q82 0 127.5 -49.5t45.5 -136.5v-362h-127v345q0 46 -24 72t-63 26q-47 0 -77.5 -35t-30.5 -92v-316h-127v345q0 46 -22 72t-62 26q-22 0 -42 -9.5t-35.5 -26t-24.5 -40t-9 -51.5
v-316h-127v534z" />
    <glyph glyph-name="n" unicode="n" horiz-adv-x="589" 
d="M182 456h3q26 45 67.5 68.5t98.5 23.5q87 0 135.5 -49.5t48.5 -136.5v-362h-127v341q0 48 -26.5 75t-75.5 27q-27 0 -49 -9.5t-38 -27t-25 -41.5t-9 -52v-313h-127v534h124v-78z" />
    <glyph glyph-name="o" unicode="o" horiz-adv-x="606" 
d="M304 -16q-62 0 -112.5 22t-86 60t-55 89.5t-19.5 110.5q0 60 19.5 111.5t55 89.5t86 59.5t112.5 21.5t112 -21.5t85.5 -59.5t54.5 -89.5t19 -111.5q0 -59 -19 -110.5t-54.5 -89.5t-85.5 -60t-112 -22zM303 80q35 0 61.5 14t44.5 39t27.5 59t9.5 74t-9.5 74.5t-27.5 60
t-44.5 39.5t-61.5 14t-62 -14t-45 -39.5t-27 -60t-9 -74.5t9 -74t27 -59t45 -39t62 -14z" />
    <glyph glyph-name="p" unicode="p" horiz-adv-x="611" 
d="M58 534h123v-79h3q29 46 69 69.5t97 23.5q52 0 94.5 -20t72.5 -57t46.5 -89t16.5 -116q0 -65 -16.5 -117t-46.5 -89t-73.5 -57t-97.5 -20t-95.5 22t-66.5 63h-3q2 -15 3 -40.5t1 -63.5v-143h-127v713zM322 84q31 0 55.5 13t40.5 37t24.5 57t8.5 72q0 40 -8 73.5
t-24.5 57.5t-40.5 37.5t-57 13.5q-36 0 -62.5 -14t-44 -39t-26 -58t-8.5 -71t8.5 -70.5t26 -56.5t44 -38t63.5 -14z" />
    <glyph glyph-name="q" unicode="q" horiz-adv-x="611" 
d="M427 -36q0 24 1 54t2 50h-2q-27 -41 -67 -63t-94 -22t-97.5 20t-73.5 57t-46.5 89t-16.5 117q0 64 16.5 116t47 89t73 57t94.5 20q110 0 163 -91h3v77h123v-713h-126v143zM290 84q37 0 63.5 13.5t44 37.5t26 56.5t8.5 71.5t-8.5 72.5t-26 58t-44 38t-62.5 13.5
q-33 0 -57.5 -13.5t-40.5 -37.5t-24 -57.5t-8 -73.5q0 -39 8.5 -72t24.5 -57t40 -37t56 -13z" />
    <glyph glyph-name="r" unicode="r" horiz-adv-x="396" 
d="M181 438h3q51 104 153 104q23 0 34 -5v-114h-4q-16 4 -35 4q-63 1 -105 -40.5t-42 -118.5v-268h-127v534h123v-96z" />
    <glyph glyph-name="s" unicode="s" horiz-adv-x="531" 
d="M272 -17q-115 0 -178.5 50t-69.5 131h122q8 -48 42 -69.5t85 -21.5q53 0 78 20.5t25 52.5q0 20 -10 32.5t-28 21t-43.5 14t-56.5 11.5q-38 7 -73 17t-62 27.5t-43.5 46t-16.5 73.5q0 38 15.5 67.5t43 50t66.5 31t86 10.5q107 0 161.5 -43.5t64.5 -113.5h-121
q-14 71 -106 71q-45 0 -67.5 -18t-22.5 -46q0 -18 10 -29t28 -18.5t43 -12.5l55 -11q38 -7 74 -16.5t64.5 -28t45.5 -49t17 -79.5q0 -42 -17 -74t-47.5 -53.5t-72.5 -32.5t-91 -11z" />
    <glyph glyph-name="t" unicode="t" horiz-adv-x="371" 
d="M26 534h82v170h125v-170h107v-87h-107v-299q0 -29 15 -39.5t42 -10.5q10 0 21.5 1t19.5 3h6v-99q-16 -3 -37 -5.5t-47 -2.5q-32 0 -59 6.5t-46 21t-29.5 38.5t-10.5 59v327h-82v87z" />
    <glyph glyph-name="u" unicode="u" horiz-adv-x="583" 
d="M402 0v76h-2q-29 -44 -66.5 -67t-94.5 -23q-88 0 -136.5 50.5t-48.5 137.5v360h127v-342q0 -48 26 -74t74 -26q54 0 86 36.5t32 92.5v313h126v-534h-123z" />
    <glyph glyph-name="v" unicode="v" horiz-adv-x="523" 
d="M5 534h133l78 -249q8 -27 16.5 -58.5t14.5 -58.5q7 -32 14 -62h3q6 30 13 62q6 27 14 58.5t17 58.5l81 249h129l-189 -534h-139z" />
    <glyph glyph-name="w" unicode="w" horiz-adv-x="803" 
d="M8 534h132l69 -249q6 -23 12 -51.5t11 -52.5q5 -29 10 -57h2q5 28 11 56q5 24 11 52.5t13 52.5l66 249h112l68 -249q6 -23 12 -51t11 -53q5 -29 11 -58h2q5 29 10 57q5 24 10.5 52t13.5 53l71 249h128l-170 -534h-122l-67 254q-5 21 -11 48t-11 51q-6 28 -11 58h-2
q-6 -30 -12 -58q-5 -24 -11 -51t-11 -48l-69 -254h-122z" />
    <glyph glyph-name="x" unicode="x" horiz-adv-x="576" 
d="M212 280l-173 254h146l53 -84q8 -14 16.5 -30.5t16.5 -30.5q9 -17 17 -34h2q8 17 17 34q8 14 16.5 30.5t16.5 30.5l54 84h136l-169 -248l196 -286h-147l-70 107q-9 14 -18.5 31.5t-17.5 33.5q-10 18 -18 36h-2q-9 -18 -19 -36q-8 -16 -18 -33.5l-18 -31.5l-71 -107h-140z
" />
    <glyph glyph-name="y" unicode="y" horiz-adv-x="539" 
d="M150 -182q-6 0 -20 0.5t-29 1.5t-28 2t-16 2v103h7q2 -1 8.5 -2t15 -1.5t16.5 -1t13 -0.5q32 0 51 13.5t27 45.5q0 4 0.5 14t0.5 23t-1.5 27t-5.5 25l-184 464h135l88 -248q8 -25 16.5 -54t14.5 -54l14 -58h2q7 30 15 59q7 25 15 53.5t16 53.5l85 248h128l-207 -564
q-17 -44 -34 -73.5t-38 -47t-46.5 -24.5t-58.5 -7z" />
    <glyph glyph-name="z" unicode="z" horiz-adv-x="526" 
d="M40 96l213 261q10 11 23.5 25t25.5 26q14 14 28 27v3q-20 -2 -39 -3q-17 -2 -35.5 -2.5t-33.5 -0.5h-162v102h419v-87l-212 -260q-11 -13 -26 -27.5t-28 -27.5q-16 -15 -31 -30v-3q20 1 41 2q17 1 37.5 2t37.5 1h194v-104h-452v96z" />
    <glyph glyph-name="braceleft" unicode="{" horiz-adv-x="384" 
d="M322 -134q-50 0 -87.5 9t-63 30.5t-38 57t-12.5 88.5v154q0 37 -20 54.5t-70 19.5v98q50 2 70 19.5t20 54.5v151q0 53 12.5 88t38 56t63 29.5t87.5 8.5h29v-100h-25q-43 0 -62 -16t-19 -67v-164q0 -46 -17.5 -71t-55.5 -36v-3q38 -12 55.5 -36.5t17.5 -70.5v-169
q0 -50 19 -67t62 -17h25v-101h-29v0z" />
    <glyph glyph-name="bar" unicode="|" horiz-adv-x="246" 
d="M78 784h89v-918h-89v918z" />
    <glyph glyph-name="braceright" unicode="}" horiz-adv-x="384" 
d="M42 -33h19q43 0 62 16.5t19 66.5v168q0 46 18 70.5t56 36.5v3q-38 11 -56 36t-18 71v165q0 50 -19 67t-62 17h-19v100h23q50 0 88 -9t63 -30t37.5 -56.5t12.5 -88.5v-151q0 -36 19 -54t67 -20v-97q-48 -2 -67 -20t-19 -54v-154q0 -53 -12.5 -88.5t-37.5 -56.5t-63 -30
t-88 -9h-23v101z" />
    <glyph glyph-name="asciitilde" unicode="~" horiz-adv-x="453" 
d="M308 268q-23 0 -42.5 6.5t-37.5 14.5q-23 10 -37.5 16.5t-28.5 6.5q-32 0 -35 -45h-87q1 75 32.5 113.5t79.5 38.5q25 0 44.5 -7t37.5 -16q18 -10 31.5 -16t27.5 -6q19 0 27 11t9 33h87q-1 -69 -27.5 -109.5t-80.5 -40.5z" />
    <glyph glyph-name="uni00A0" unicode="&#xa0;" horiz-adv-x="241" 
 />
    <glyph glyph-name="exclamdown" unicode="&#xa1;" horiz-adv-x="277" 
d="M206 76v-208h-134v208l33 297h67zM209 473h-140v139h140v-139z" />
    <glyph glyph-name="cent" unicode="&#xa2;" horiz-adv-x="571" 
d="M269 -14q-56 6 -100 30t-74.5 61t-47 85.5t-16.5 103.5t16.5 104t47.5 86.5t75 61t99 29.5v88h61v-88q91 -8 146 -60.5t68 -133.5h-123q-8 38 -31 63.5t-60 32.5v-365q41 8 65 36.5t29 74.5h121q-3 -44 -19 -81t-43.5 -64.5t-66 -44t-86.5 -20.5v-109h-61v110zM158 266
q0 -70 28 -119t83 -62v363q-55 -12 -83 -61.5t-28 -120.5z" />
    <glyph glyph-name="sterling" unicode="&#xa3;" horiz-adv-x="612" 
d="M44 388h54q-13 29 -23 59t-10 68q0 45 17 84t50 67.5t80.5 44.5t108.5 16q53 0 98 -13.5t80 -42.5q36 -30 56.5 -75.5t21.5 -111.5h-128q-1 74 -37 106t-91 32q-58 0 -88 -29.5t-30 -80.5q0 -33 10.5 -63t22.5 -61h145v-81h-122q3 -20 3 -39q0 -46 -22.5 -82t-70.5 -74
l2 -3q29 15 50.5 21t47.5 6q27 0 47 -5t37 -11.5t34 -11.5t39 -5q32 0 57.5 14t44.5 32l62 -99q-32 -28 -73.5 -46t-90.5 -18q-37 0 -63.5 8.5t-50.5 18t-47.5 18t-54.5 8.5t-57 -14t-49 -31l-68 98q45 31 75 67t30 89q0 16 -2.5 30.5t-7.5 28.5h-87v81z" />
    <glyph glyph-name="currency" unicode="&#xa4;" horiz-adv-x="524" 
d="M262 227q51 0 78 36.5t27 93.5t-27 94t-78 37t-79.5 -37t-28.5 -94t28.5 -93.5t79.5 -36.5zM19 169l68 69q-33 53 -33 119q0 65 33 118l-68 70l63 61l68 -70q23 15 51 23.5t61 8.5q32 0 60 -8.5t51 -23.5l68 70l64 -61l-70 -70q33 -51 33 -118q0 -32 -8.5 -62.5
t-24.5 -55.5l70 -70l-64 -62l-69 70q-45 -30 -110 -30t-111 30l-69 -70z" />
    <glyph glyph-name="yen" unicode="&#xa5;" horiz-adv-x="646" 
d="M79 335h158l-221 378h147l79 -148q14 -25 28 -55.5t26 -57.5q14 -32 28 -65h2q14 33 28 65q12 27 26.5 57.5t28.5 55.5l79 148h143l-221 -378h160v-61h-181v-76h181v-61h-181v-137h-129v137h-181v61h181v76h-181v61z" />
    <glyph glyph-name="brokenbar" unicode="&#xa6;" horiz-adv-x="246" 
d="M78 784h89v-398h-89v398zM78 281h89v-415h-89v415z" />
    <glyph glyph-name="section" unicode="&#xa7;" horiz-adv-x="646" 
d="M332 -190q-56 0 -100 15.5t-75 42.5t-48 63t-18 77h121q2 -41 31.5 -69t86.5 -28q45 0 68.5 20t23.5 49q0 20 -11.5 34.5t-34 29t-56.5 30.5t-79 38q-47 22 -84.5 43.5t-63.5 45.5t-40 53t-14 67q0 56 34 91.5t92 50.5q-25 22 -39 46.5t-14 61.5t15.5 67.5t43.5 52
t67 33.5t87 12q102 0 159.5 -50.5t62.5 -133.5h-117q-4 36 -28 60t-75 24q-46 0 -68 -18t-22 -46q0 -18 10 -31.5t30 -26.5t49.5 -27t68.5 -32q42 -20 81 -40.5t68.5 -45t47 -55t17.5 -71.5q0 -62 -34 -96.5t-89 -48.5q27 -23 44.5 -51.5t17.5 -66.5q0 -40 -15.5 -71.5
t-43.5 -53.5t-68 -33.5t-89 -11.5zM335 353q-31 14 -59 28t-50 26q-33 -8 -51 -26.5t-18 -44.5q0 -17 7 -30.5t23.5 -27t44 -28.5t67.5 -36q27 -14 59.5 -30.5t59.5 -31.5q35 10 52 29.5t17 46.5q0 18 -9 32.5t-27.5 28.5t-47.5 29t-68 35z" />
    <glyph glyph-name="dieresis" unicode="&#xa8;" 
d="M300 744h122v-123h-122v123zM78 744h122v-123h-122v123z" />
    <glyph glyph-name="copyright" unicode="&#xa9;" horiz-adv-x="865" 
d="M433 -18q-80 0 -150 29t-121.5 81t-81 123t-29.5 154q0 84 29.5 155t81 122.5t121.5 81t150 29.5t150 -29.5t121.5 -81t81 -122.5t29.5 -155q0 -83 -29.5 -154t-81 -123t-121.5 -81t-150 -29zM433 28q70 0 129.5 26t103 71.5t68.5 108t25 135.5t-25 136t-68.5 108.5
t-103 71.5t-129.5 26t-130 -26t-104 -71.5t-69 -108.5t-25 -136t25 -135.5t69 -108t104 -71.5t130 -26zM438 145q-48 0 -87 17t-67.5 47t-44 71.5t-15.5 90.5t15 91t43 72.5t67.5 48t88.5 17.5q37 0 67.5 -10t53.5 -28q29 -20 45 -50.5t20 -65.5h-101q-5 28 -26.5 48
t-59.5 20q-27 0 -47.5 -11t-34 -30.5t-20 -45.5t-6.5 -56q0 -62 29.5 -101t80.5 -39q41 0 63 23t26 55h99q-2 -33 -15 -63.5t-36 -51.5q-26 -23 -58.5 -36t-79.5 -13z" />
    <glyph glyph-name="ordfeminine" unicode="&#xaa;" horiz-adv-x="532" 
d="M368 245q-6 8 -10 23t-6 39h-1q-20 -29 -54 -50.5t-90 -21.5q-34 0 -64 9t-52 26.5t-35 43.5t-13 60q0 40 15 66.5t41 43t62 25t78 13.5q60 7 87 18.5t27 42.5t-19.5 48t-61.5 17q-48 0 -70.5 -20t-27.5 -54h-110q2 30 15.5 58t39 49.5t63.5 34t88 12.5q42 0 74.5 -7
t57.5 -23q31 -20 47.5 -52.5t16.5 -78.5v-250q0 -53 17 -65v-7h-115zM238 314q28 0 50 8.5t37 23t22.5 33t7.5 38.5v64q-16 -9 -41 -15.5t-51 -11.5q-53 -8 -78.5 -23.5t-25.5 -52.5t23.5 -50.5t55.5 -13.5z" />
    <glyph glyph-name="guillemotleft" unicode="&#xab;" horiz-adv-x="513" 
d="M285 211v123l160 151v-119l-98 -94v-2l98 -94v-116zM68 211v123l159 151v-119l-97 -94v-2l97 -94v-116z" />
    <glyph glyph-name="logicalnot" unicode="&#xac;" horiz-adv-x="555" 
d="M58 440h426v-274h-109v171h-317v103z" />
    <glyph glyph-name="uni00AD" unicode="&#xad;" horiz-adv-x="368" 
d="M44 330h280v-112h-280v112z" />
    <glyph glyph-name="registered" unicode="&#xae;" horiz-adv-x="657" 
d="M329 172q-60 0 -113 22t-92 61t-61.5 92.5t-22.5 116.5t22.5 117t61.5 93t92 61t113 22t112.5 -22t91.5 -61t61.5 -93t22.5 -117t-22.5 -116.5t-61.5 -92.5t-91.5 -61t-112.5 -22zM329 213q52 0 96 19t76 52.5t50 79.5t18 100t-18 100.5t-50 80t-76 52.5t-96 19t-96 -19
t-76 -52.5t-50 -80t-18 -100.5t18 -100t50 -79.5t76 -52.5t96 -19zM212 619h145q44 0 74.5 -22.5t30.5 -64.5q0 -26 -14 -45t-46 -28v-2q26 -7 36.5 -19.5t13.5 -39.5q4 -27 5.5 -50.5t9.5 -26.5v-6h-70q-7 3 -8.5 24.5t-4.5 46.5q-3 45 -51 45h-49v-116h-72v304zM284 485
h59q48 0 48 39q0 17 -11.5 27.5t-35.5 10.5h-60v-77z" />
    <glyph glyph-name="macron" unicode="&#xaf;" 
d="M104 730h294v-94h-294v94z" />
    <glyph glyph-name="degree" unicode="&#xb0;" horiz-adv-x="412" 
d="M206 410q-33 0 -63 12t-52.5 33.5t-35.5 50.5t-13 62t13 62.5t35.5 51t52.5 34t63 12.5q34 0 64 -12.5t52.5 -34t35.5 -51t13 -62.5t-13 -62t-35.5 -50.5t-52.5 -33.5t-64 -12zM206 479q38 0 60.5 25.5t22.5 63.5t-22.5 64.5t-60.5 26.5t-60.5 -26.5t-22.5 -64.5
t22.5 -63.5t60.5 -25.5z" />
    <glyph glyph-name="plusminus" unicode="&#xb1;" horiz-adv-x="604" 
d="M58 442h190v170h108v-170h190v-100h-190v-171h-108v171h-190v100zM58 98h488v-98h-488v98z" />
    <glyph glyph-name="twosuperior" unicode="&#xb2;" horiz-adv-x="416" 
d="M28 287q1 36 11.5 64.5t27 51t38 41t44.5 34.5q26 18 50 32t42 28t28.5 30t10.5 37q0 30 -18 48t-50 18q-35 0 -55.5 -23.5t-20.5 -62.5h-100q0 80 49 124t131 44q39 0 70.5 -11.5t53 -31t33 -45.5t11.5 -56q0 -28 -8 -49t-21 -38t-30.5 -30.5t-36.5 -26.5
q-17 -12 -35.5 -23t-36 -22.5t-32.5 -23.5t-23 -25h223v-84h-356v0z" />
    <glyph glyph-name="threesuperior" unicode="&#xb3;" horiz-adv-x="425" 
d="M216 276q-47 0 -83 12t-60.5 33.5t-38 50.5t-13.5 63h100q2 -33 23 -56t66 -23q38 0 59 17.5t21 51.5t-22.5 49.5t-64.5 15.5h-28v73h25q38 0 58.5 14.5t20.5 43.5q0 27 -19 42.5t-49 15.5q-38 0 -56.5 -21t-20.5 -50h-99q1 31 13.5 57.5t35.5 46t55.5 31t74.5 11.5
q36 0 66.5 -9t52.5 -25.5t34.5 -40t12.5 -53.5q0 -36 -21.5 -58t-59.5 -35v-1q97 -24 97 -113q0 -36 -14 -63t-38.5 -44.5t-57.5 -26.5t-70 -9z" />
    <glyph glyph-name="acute" unicode="&#xb4;" 
d="M243 772h150l-105 -154h-98z" />
    <glyph glyph-name="mu" unicode="&#xb5;" horiz-adv-x="587" 
d="M58 534h127v-342q0 -48 26 -74t74 -26q54 0 86 36.5t32 92.5v313h126v-534h-123v76h-2q-24 -38 -60 -62t-89 -24q-49 0 -71 24h-2q0 -14 1 -30q1 -14 1.5 -32t0.5 -38v-93h-127v713z" />
    <glyph glyph-name="paragraph" unicode="&#xb6;" horiz-adv-x="589" 
d="M241 358q-97 0 -150.5 52t-53.5 140q0 44 15 79.5t42 62.5q52 52 154 52h272v-884h-81v794h-81v-794h-80v498h-37z" />
    <glyph glyph-name="periodcentered" unicode="&#xb7;" horiz-adv-x="246" 
d="M53 398h140v-140h-140v140z" />
    <glyph glyph-name="cedilla" unicode="&#xb8;" 
d="M227 -209q-36 0 -64 8.5t-48 21.5l18 36q34 -16 72 -16q23 0 39 7t16 27q0 16 -10.5 23t-27.5 7q-12 0 -21 -2t-17 -5l-17 26l72 76h64l-63 -55v-2q19 3 38 0.5t34.5 -11t25.5 -23.5t10 -37q0 -38 -33.5 -59.5t-87.5 -21.5z" />
    <glyph glyph-name="onesuperior" unicode="&#xb9;" horiz-adv-x="314" 
d="M143 585h-114v71q54 2 89.5 23.5t43.5 69.5h87v-462h-106v298z" />
    <glyph glyph-name="ordmasculine" unicode="&#xba;" horiz-adv-x="553" 
d="M277 232q-55 0 -99.5 19t-75.5 52.5t-48 78.5t-17 97t17 97.5t48 79.5t75.5 53t99.5 19t99.5 -19t75.5 -53t47.5 -79.5t16.5 -97.5t-16.5 -97t-47.5 -78.5t-75.5 -52.5t-99.5 -19zM277 318q30 0 52 12t37 33.5t22.5 51t7.5 64.5t-7.5 65t-22.5 51.5t-37 34t-52 12.5
t-52.5 -12.5t-37.5 -34t-22.5 -51.5t-7.5 -65t7.5 -64.5t22.5 -51t37.5 -33.5t52.5 -12z" />
    <glyph glyph-name="guillemotright" unicode="&#xbb;" horiz-adv-x="513" 
d="M227 333v-123l-159 -150v118l98 94v2l-98 94v117zM445 333v-123l-160 -150v118l98 94v2l-98 94v117z" />
    <glyph glyph-name="onequarter" unicode="&#xbc;" horiz-adv-x="874" 
d="M678 -10h-222v92l223 270h104v-286h69v-76h-69v-100h-105v100zM693 744h96l-638 -874h-95zM146 585h-114v71q54 2 89.5 23.5t43.5 69.5h87v-462h-106v298zM524 61q14 1 27 2q11 1 24 2t24 1h79v111q0 11 0.5 24.5t2.5 24.5q2 13 4 27h-2q-8 -13 -16 -24q-7 -10 -15 -21.5
t-16 -19.5l-55 -68q-8 -10 -17.5 -20t-18.5 -18q-11 -10 -21 -19v-2z" />
    <glyph glyph-name="onehalf" unicode="&#xbd;" horiz-adv-x="920" 
d="M528 -110q1 36 11.5 64.5t27 51t38 40.5t44.5 34q26 18 50 32.5t42 28.5t28.5 30t10.5 37q0 30 -18 48t-50 18q-35 0 -55.5 -23.5t-20.5 -62.5h-100q0 79 49 123.5t131 44.5q39 0 70.5 -11.5t53 -31t33 -45.5t11.5 -56q0 -28 -8 -49t-21 -38t-30.5 -30.5t-36.5 -26.5
q-17 -12 -35.5 -23t-36 -22.5t-32.5 -23.5t-23 -25h223v-84h-356zM146 585h-114v71q54 2 89.5 23.5t43.5 69.5h87v-462h-106v298zM689 744h96l-638 -874h-95z" />
    <glyph glyph-name="threequarters" unicode="&#xbe;" horiz-adv-x="962" 
d="M766 -10h-222v92l223 270h104v-286h69v-76h-69v-100h-105v100zM219 276q-47 0 -83 12t-60.5 33.5t-38 50.5t-13.5 63h100q2 -33 23 -56t66 -23q38 0 59 17.5t21 51.5t-22.5 49.5t-64.5 15.5h-28v73h25q38 0 58.5 14.5t20.5 43.5q0 27 -19 42.5t-49 15.5q-38 0 -56.5 -21
t-20.5 -50h-99q1 31 13.5 57.5t35.5 46t55.5 31t74.5 11.5q36 0 66.5 -9t52.5 -25.5t34.5 -40t12.5 -53.5q0 -36 -21.5 -58t-59.5 -35v-1q97 -24 97 -113q0 -36 -14 -63t-38.5 -44.5t-57.5 -26.5t-70 -9zM777 744h96l-638 -874h-95zM612 61q14 1 27 2q11 1 24 2t24 1h79v111
q0 11 0.5 24.5t2.5 24.5q2 13 4 27h-2q-8 -13 -16 -24q-7 -10 -15 -21.5t-16 -19.5l-55 -68q-8 -10 -17.5 -20t-18.5 -18q-11 -10 -21 -19v-2z" />
    <glyph glyph-name="questiondown" unicode="&#xbf;" horiz-adv-x="565" 
d="M369 473h-140v139h140v-139zM355 373q0 -34 -5 -60t-15.5 -47.5t-28 -41t-41.5 -40.5q-17 -15 -34.5 -28t-31.5 -28t-23 -32.5t-9 -40.5q0 -41 30.5 -66.5t82.5 -25.5q63 0 98 37.5t37 94.5h126q-2 -48 -19 -91.5t-50 -76.5t-82 -52.5t-114 -19.5q-56 0 -100.5 14.5
t-76 41t-48.5 62.5t-17 79q0 58 25 96t58 64q37 29 61.5 47.5t38.5 35.5q13 16 18 33.5t5 44.5h115z" />
    <glyph glyph-name="Agrave" unicode="&#xc0;" horiz-adv-x="718" 
d="M284 744h148l271 -744h-148l-59 177h-282l-60 -177h-140zM248 279h214l-57 172q-11 33 -19.5 64.5t-14.5 57.5q-7 30 -13 57h-2q-8 -31 -16 -63q-7 -27 -15.5 -58.5t-17.5 -57.5zM206 913h154l47 -128h-101z" />
    <glyph glyph-name="Aacute" unicode="&#xc1;" horiz-adv-x="718" 
d="M284 744h148l271 -744h-148l-59 177h-282l-60 -177h-140zM248 279h214l-57 172q-11 33 -19.5 64.5t-14.5 57.5q-7 30 -13 57h-2q-8 -31 -16 -63q-7 -27 -15.5 -58.5t-17.5 -57.5zM349 913h154l-100 -128h-102z" />
    <glyph glyph-name="Acircumflex" unicode="&#xc2;" horiz-adv-x="718" 
d="M284 744h148l271 -744h-148l-59 177h-282l-60 -177h-140zM248 279h214l-57 172q-11 33 -19.5 64.5t-14.5 57.5q-7 30 -13 57h-2q-8 -31 -16 -63q-7 -27 -15.5 -58.5t-17.5 -57.5zM293 908h129l104 -123h-117l-50 59h-2l-52 -59h-117z" />
    <glyph glyph-name="Atilde" unicode="&#xc3;" horiz-adv-x="718" 
d="M284 744h148l271 -744h-148l-59 177h-282l-60 -177h-140zM248 279h214l-57 172q-11 33 -19.5 64.5t-14.5 57.5q-7 30 -13 57h-2q-8 -31 -16 -63q-7 -27 -15.5 -58.5t-17.5 -57.5zM428 786q-21 0 -39.5 6t-34.5 13.5t-29 14t-24 6.5q-12 0 -21 -11t-11 -29h-75
q1 62 28 93.5t69 31.5q22 0 39.5 -6t32 -13.5t27 -13.5t26.5 -6q15 0 22 10t9 27h76q-2 -57 -25.5 -90t-69.5 -33z" />
    <glyph glyph-name="Adieresis" unicode="&#xc4;" horiz-adv-x="718" 
d="M284 744h148l271 -744h-148l-59 177h-282l-60 -177h-140zM248 279h214l-57 172q-11 33 -19.5 64.5t-14.5 57.5q-7 30 -13 57h-2q-8 -31 -16 -63q-7 -27 -15.5 -58.5t-17.5 -57.5zM409 907h125v-122h-125v122zM184 907h125v-122h-125v122z" />
    <glyph glyph-name="Aring" unicode="&#xc5;" horiz-adv-x="718" 
d="M284 744h148l271 -744h-148l-59 177h-282l-60 -177h-140zM360 777q-23 0 -43 8t-35 22.5t-23.5 33.5t-8.5 42q0 22 8.5 41t23.5 33t35 22.5t43 8.5q22 0 41.5 -8.5t34.5 -22.5t23.5 -33t8.5 -41q0 -23 -8.5 -42t-23.5 -33.5t-34.5 -22.5t-41.5 -8zM248 279h214l-57 172
q-11 33 -19.5 64.5t-14.5 57.5q-7 30 -13 57h-2q-8 -31 -16 -63q-7 -27 -15.5 -58.5t-17.5 -57.5zM360 827q23 0 38 16t15 40q0 23 -15 39.5t-38 16.5q-25 0 -40 -16.5t-15 -39.5q0 -24 15 -40t40 -16z" />
    <glyph glyph-name="AE" unicode="&#xc6;" horiz-adv-x="1029" 
d="M972 626h-372v-185h326v-111h-326v-206h384v-124h-524v179h-244l-61 -179h-138l261 744h694v-118zM251 281h209v345h-92z" />
    <glyph glyph-name="Ccedilla" unicode="&#xc7;" horiz-adv-x="752" 
d="M359 -209q-36 0 -64 8.5t-48 21.5l18 36q34 -16 72 -16q23 0 39 7t16 27q0 16 -10.5 23t-27.5 7q-12 0 -21 -2t-17 -5l-17 26l58 62q-72 7 -130.5 38.5t-100 82t-64 118t-22.5 145.5q0 83 25 154t71.5 123t113 81.5t149.5 29.5q64 0 116 -16t90 -45q45 -35 71.5 -84
t33.5 -108h-138q-10 60 -55 98t-119 38q-53 0 -93.5 -20.5t-68 -57t-41.5 -86t-14 -107.5q0 -59 15.5 -108.5t44 -85t68.5 -55.5t90 -20q42 0 74 13t54.5 35.5t35.5 52t16 63.5h139q-2 -56 -26.5 -108.5t-63.5 -90.5q-77 -77 -211 -81l-45 -40v-2q19 3 38 0.5t34.5 -11
t25.5 -23.5t10 -37q0 -38 -33.5 -59.5t-87.5 -21.5z" />
    <glyph glyph-name="Egrave" unicode="&#xc8;" horiz-adv-x="668" 
d="M70 744h544v-118h-406v-184h359v-111h-359v-210h415v-121h-553v744zM200 913h154l47 -128h-101z" />
    <glyph glyph-name="Eacute" unicode="&#xc9;" horiz-adv-x="668" 
d="M70 744h544v-118h-406v-184h359v-111h-359v-210h415v-121h-553v744zM343 913h154l-100 -128h-102z" />
    <glyph glyph-name="Ecircumflex" unicode="&#xca;" horiz-adv-x="668" 
d="M70 744h544v-118h-406v-184h359v-111h-359v-210h415v-121h-553v744zM286 908h129l104 -123h-117l-50 59h-2l-52 -59h-117z" />
    <glyph glyph-name="Edieresis" unicode="&#xcb;" horiz-adv-x="668" 
d="M70 744h544v-118h-406v-184h359v-111h-359v-210h415v-121h-553v744zM178 907h125v-122h-125v122zM403 907h125v-122h-125v122z" />
    <glyph glyph-name="Igrave" unicode="&#xcc;" horiz-adv-x="280" 
d="M70 744h139v-744h-139v744zM-12 913h154l47 -128h-101z" />
    <glyph glyph-name="Iacute" unicode="&#xcd;" horiz-adv-x="280" 
d="M70 744h139v-744h-139v744zM131 913h154l-100 -128h-102z" />
    <glyph glyph-name="Icircumflex" unicode="&#xce;" horiz-adv-x="280" 
d="M70 744h139v-744h-139v744zM74 908h129l104 -123h-117l-50 59h-2l-52 -59h-117z" />
    <glyph glyph-name="Idieresis" unicode="&#xcf;" horiz-adv-x="280" 
d="M70 744h139v-744h-139v744zM180 907h119v-122h-119v122zM-20 907h120v-122h-120v122z" />
    <glyph glyph-name="Eth" unicode="&#xd0;" horiz-adv-x="747" 
d="M11 431h66v313h294q81 0 144 -27t106 -76.5t65.5 -118.5t22.5 -154q0 -83 -22.5 -151t-66 -116t-108.5 -74.5t-150 -26.5h-285v320h-66v111zM354 118q110 0 161.5 66.5t51.5 183.5q0 58 -12 105.5t-37.5 81.5t-65 52.5t-94.5 18.5h-142v-195h189v-111h-189v-202h138z" />
    <glyph glyph-name="Ntilde" unicode="&#xd1;" horiz-adv-x="747" 
d="M451 786q-21 0 -39.5 6t-34.5 13.5t-29 14t-24 6.5q-12 0 -21 -11t-11 -29h-75q1 62 28 93.5t69 31.5q22 0 39.5 -6t32 -13.5t27 -13.5t26.5 -6q15 0 22 10t9 27h76q-2 -57 -25.5 -90t-69.5 -33zM70 744h142l247 -390q15 -25 31 -55t30 -56l32 -62h3q-2 34 -4 67
q-2 29 -3 62t-1 61v373h131v-744h-142l-246 388q-16 25 -32 55.5t-30 56.5l-32 62h-2q1 -34 3 -67q2 -29 3 -62t1 -61v-372h-131v744z" />
    <glyph glyph-name="Ograve" unicode="&#xd2;" horiz-adv-x="812" 
d="M253 913h154l47 -128h-101zM406 -17q-84 0 -152 29t-115.5 81t-73 123t-25.5 154q0 84 25.5 155t73 122.5t115.5 81t152 29.5t152 -29.5t115.5 -81t73 -122.5t25.5 -155q0 -83 -25.5 -154t-73 -123t-115.5 -81t-152 -29zM407 100q55 0 97 20.5t70 56.5t42 85.5t14 107.5
t-14 108t-42 87t-70 58t-97 21q-56 0 -98 -21t-70.5 -58t-43 -87t-14.5 -108t14.5 -107.5t43 -85.5t70.5 -56.5t98 -20.5z" />
    <glyph glyph-name="Oacute" unicode="&#xd3;" horiz-adv-x="812" 
d="M396 913h154l-100 -128h-102zM406 -17q-84 0 -152 29t-115.5 81t-73 123t-25.5 154q0 84 25.5 155t73 122.5t115.5 81t152 29.5t152 -29.5t115.5 -81t73 -122.5t25.5 -155q0 -83 -25.5 -154t-73 -123t-115.5 -81t-152 -29zM407 100q55 0 97 20.5t70 56.5t42 85.5
t14 107.5t-14 108t-42 87t-70 58t-97 21q-56 0 -98 -21t-70.5 -58t-43 -87t-14.5 -108t14.5 -107.5t43 -85.5t70.5 -56.5t98 -20.5z" />
    <glyph glyph-name="Ocircumflex" unicode="&#xd4;" horiz-adv-x="812" 
d="M406 -17q-84 0 -152 29t-115.5 81t-73 123t-25.5 154q0 84 25.5 155t73 122.5t115.5 81t152 29.5t152 -29.5t115.5 -81t73 -122.5t25.5 -155q0 -83 -25.5 -154t-73 -123t-115.5 -81t-152 -29zM407 100q55 0 97 20.5t70 56.5t42 85.5t14 107.5t-14 108t-42 87t-70 58
t-97 21q-56 0 -98 -21t-70.5 -58t-43 -87t-14.5 -108t14.5 -107.5t43 -85.5t70.5 -56.5t98 -20.5zM339 908h129l104 -123h-117l-50 59h-2l-52 -59h-117z" />
    <glyph glyph-name="Otilde" unicode="&#xd5;" horiz-adv-x="812" 
d="M475 786q-21 0 -39.5 6t-34.5 13.5t-29 14t-24 6.5q-12 0 -21 -11t-11 -29h-75q1 62 28 93.5t69 31.5q22 0 39.5 -6t32 -13.5t27 -13.5t26.5 -6q15 0 22 10t9 27h76q-2 -57 -25.5 -90t-69.5 -33zM406 -17q-84 0 -152 29t-115.5 81t-73 123t-25.5 154q0 84 25.5 155
t73 122.5t115.5 81t152 29.5t152 -29.5t115.5 -81t73 -122.5t25.5 -155q0 -83 -25.5 -154t-73 -123t-115.5 -81t-152 -29zM407 100q55 0 97 20.5t70 56.5t42 85.5t14 107.5t-14 108t-42 87t-70 58t-97 21q-56 0 -98 -21t-70.5 -58t-43 -87t-14.5 -108t14.5 -107.5t43 -85.5
t70.5 -56.5t98 -20.5z" />
    <glyph glyph-name="Odieresis" unicode="&#xd6;" horiz-adv-x="812" 
d="M456 907h125v-122h-125v122zM231 907h125v-122h-125v122zM406 -17q-84 0 -152 29t-115.5 81t-73 123t-25.5 154q0 84 25.5 155t73 122.5t115.5 81t152 29.5t152 -29.5t115.5 -81t73 -122.5t25.5 -155q0 -83 -25.5 -154t-73 -123t-115.5 -81t-152 -29zM407 100
q55 0 97 20.5t70 56.5t42 85.5t14 107.5t-14 108t-42 87t-70 58t-97 21q-56 0 -98 -21t-70.5 -58t-43 -87t-14.5 -108t14.5 -107.5t43 -85.5t70.5 -56.5t98 -20.5z" />
    <glyph glyph-name="multiply" unicode="&#xd7;" horiz-adv-x="603" 
d="M67 173l165 166l-164 165l70 70l163 -165l164 165l71 -70l-165 -165l165 -165l-71 -70l-164 165l-164 -165z" />
    <glyph glyph-name="Oslash" unicode="&#xd8;" horiz-adv-x="812" 
d="M26 4l97 107q-41 51 -62 116.5t-21 142.5q0 84 25.5 155t73 122.5t115.5 81t152 29.5q71 0 130 -21t105 -59l88 97l52 -45l-92 -101q40 -51 61.5 -116.5t21.5 -142.5q0 -83 -25.5 -154t-73 -123t-115.5 -81t-152 -29q-72 0 -130.5 20.5t-104.5 58.5l-94 -104zM181 370
q0 -94 34 -159l342 375q-27 28 -64.5 43t-85.5 15q-56 0 -98 -21t-70.5 -58t-43 -87t-14.5 -108zM407 100q55 0 97 20.5t70 56.5t42 85.5t14 107.5q0 91 -33 159l-341 -374q28 -26 65.5 -40.5t85.5 -14.5z" />
    <glyph glyph-name="Ugrave" unicode="&#xd9;" horiz-adv-x="715" 
d="M209 913h154l47 -128h-101zM358 -13q-139 0 -218.5 65.5t-79.5 198.5v493h138v-491q0 -151 161 -151q76 0 117 39t41 114v489h139v-493q0 -66 -21 -115.5t-59.5 -82.5t-93.5 -49.5t-124 -16.5z" />
    <glyph glyph-name="Uacute" unicode="&#xda;" horiz-adv-x="715" 
d="M351 913h154l-100 -128h-102zM358 -13q-139 0 -218.5 65.5t-79.5 198.5v493h138v-491q0 -151 161 -151q76 0 117 39t41 114v489h139v-493q0 -66 -21 -115.5t-59.5 -82.5t-93.5 -49.5t-124 -16.5z" />
    <glyph glyph-name="Ucircumflex" unicode="&#xdb;" horiz-adv-x="715" 
d="M358 -13q-139 0 -218.5 65.5t-79.5 198.5v493h138v-491q0 -151 161 -151q76 0 117 39t41 114v489h139v-493q0 -66 -21 -115.5t-59.5 -82.5t-93.5 -49.5t-124 -16.5zM291 908h129l104 -123h-117l-50 59h-2l-52 -59h-117z" />
    <glyph glyph-name="Udieresis" unicode="&#xdc;" horiz-adv-x="715" 
d="M407 907h125v-122h-125v122zM182 907h125v-122h-125v122zM358 -13q-139 0 -218.5 65.5t-79.5 198.5v493h138v-491q0 -151 161 -151q76 0 117 39t41 114v489h139v-493q0 -66 -21 -115.5t-59.5 -82.5t-93.5 -49.5t-124 -16.5z" />
    <glyph glyph-name="Yacute" unicode="&#xdd;" horiz-adv-x="692" 
d="M275 294l-261 450h153l105 -188q12 -23 25 -50.5t24 -51.5q12 -28 25 -57h2q12 29 25 57q11 24 24 51.5t26 50.5l106 188h147l-262 -452v-292h-139v294zM337 913h154l-100 -128h-102z" />
    <glyph glyph-name="Thorn" unicode="&#xde;" horiz-adv-x="668" 
d="M70 744h140v-117h182q63 0 110.5 -18.5t78.5 -53.5q30 -31 46.5 -71.5t16.5 -90.5q0 -52 -16.5 -94.5t-48 -73t-77 -47t-104.5 -16.5h-188v-162h-140v744zM210 507v-234h166q64 0 96.5 32t32.5 86q0 57 -33 86.5t-94 29.5h-168z" />
    <glyph glyph-name="germandbls" unicode="&#xdf;" horiz-adv-x="579" 
d="M313 -10q-17 0 -33 2t-28 5v96h3q76 -11 121.5 25t45.5 115q0 67 -35.5 104.5t-105.5 37.5h-25v81h19q53 0 85.5 27t32.5 77q0 43 -26 69.5t-74 26.5q-51 0 -79.5 -29.5t-28.5 -81.5v-545h-127v550q0 46 16 84t46.5 65t74 41.5t98.5 14.5q48 0 88.5 -13.5t70 -37.5
t45.5 -58.5t16 -76.5q0 -54 -27 -90t-87 -55v-3q72 -18 110.5 -67t38.5 -127q0 -57 -17 -101t-48 -74t-74.5 -46t-95.5 -16z" />
    <glyph glyph-name="agrave" unicode="&#xe0;" horiz-adv-x="566" 
d="M404 0q-7 9 -11.5 25.5t-6.5 43.5h-2q-26 -35 -65 -58.5t-103 -23.5q-39 0 -72.5 10t-57.5 30t-38 49.5t-14 68.5q0 45 16.5 74.5t45.5 47.5t69 27.5t88 15.5q66 8 99 22.5t33 50.5q0 35 -24 56t-72 21q-54 0 -80.5 -23t-28.5 -63h-120q1 34 15.5 65.5t43 55.5t70.5 38.5
t99 14.5q46 0 81.5 -7t61.5 -24q76 -46 76 -152v-281q0 -33 5.5 -51t14.5 -24v-9h-123zM253 74q33 0 58 10.5t42 27t26 38t9 44.5v79q-19 -12 -47 -20.5t-57 -14.5q-59 -11 -91 -28.5t-32 -61.5q0 -21 7.5 -35.5t20 -23t29.5 -12t35 -3.5zM137 772h151l53 -154h-98z" />
    <glyph glyph-name="aacute" unicode="&#xe1;" horiz-adv-x="566" 
d="M404 0q-7 9 -11.5 25.5t-6.5 43.5h-2q-26 -35 -65 -58.5t-103 -23.5q-39 0 -72.5 10t-57.5 30t-38 49.5t-14 68.5q0 45 16.5 74.5t45.5 47.5t69 27.5t88 15.5q66 8 99 22.5t33 50.5q0 35 -24 56t-72 21q-54 0 -80.5 -23t-28.5 -63h-120q1 34 15.5 65.5t43 55.5t70.5 38.5
t99 14.5q46 0 81.5 -7t61.5 -24q76 -46 76 -152v-281q0 -33 5.5 -51t14.5 -24v-9h-123zM253 74q33 0 58 10.5t42 27t26 38t9 44.5v79q-19 -12 -47 -20.5t-57 -14.5q-59 -11 -91 -28.5t-32 -61.5q0 -21 7.5 -35.5t20 -23t29.5 -12t35 -3.5zM286 772h150l-105 -154h-98z" />
    <glyph glyph-name="acircumflex" unicode="&#xe2;" horiz-adv-x="566" 
d="M404 0q-7 9 -11.5 25.5t-6.5 43.5h-2q-26 -35 -65 -58.5t-103 -23.5q-39 0 -72.5 10t-57.5 30t-38 49.5t-14 68.5q0 45 16.5 74.5t45.5 47.5t69 27.5t88 15.5q66 8 99 22.5t33 50.5q0 35 -24 56t-72 21q-54 0 -80.5 -23t-28.5 -63h-120q1 34 15.5 65.5t43 55.5t70.5 38.5
t99 14.5q46 0 81.5 -7t61.5 -24q76 -46 76 -152v-281q0 -33 5.5 -51t14.5 -24v-9h-123zM253 74q33 0 58 10.5t42 27t26 38t9 44.5v79q-19 -12 -47 -20.5t-57 -14.5q-59 -11 -91 -28.5t-32 -61.5q0 -21 7.5 -35.5t20 -23t29.5 -12t35 -3.5zM220 757h129l102 -136h-116l-49 77
h-2l-51 -77h-116z" />
    <glyph glyph-name="atilde" unicode="&#xe3;" horiz-adv-x="566" 
d="M404 0q-7 9 -11.5 25.5t-6.5 43.5h-2q-26 -35 -65 -58.5t-103 -23.5q-39 0 -72.5 10t-57.5 30t-38 49.5t-14 68.5q0 45 16.5 74.5t45.5 47.5t69 27.5t88 15.5q66 8 99 22.5t33 50.5q0 35 -24 56t-72 21q-54 0 -80.5 -23t-28.5 -63h-120q1 34 15.5 65.5t43 55.5t70.5 38.5
t99 14.5q46 0 81.5 -7t61.5 -24q76 -46 76 -152v-281q0 -33 5.5 -51t14.5 -24v-9h-123zM253 74q33 0 58 10.5t42 27t26 38t9 44.5v79q-19 -12 -47 -20.5t-57 -14.5q-59 -11 -91 -28.5t-32 -61.5q0 -21 7.5 -35.5t20 -23t29.5 -12t35 -3.5zM356 621q-21 0 -39.5 6t-34.5 13.5
t-29 14t-24 6.5q-13 0 -22 -10.5t-11 -29.5h-74q1 63 28 94t69 31q22 0 39.5 -6.5t32.5 -14t27.5 -13.5t26.5 -6q15 0 22 10.5t9 27.5h75q-2 -57 -25.5 -90t-69.5 -33z" />
    <glyph glyph-name="adieresis" unicode="&#xe4;" horiz-adv-x="566" 
d="M404 0q-7 9 -11.5 25.5t-6.5 43.5h-2q-26 -35 -65 -58.5t-103 -23.5q-39 0 -72.5 10t-57.5 30t-38 49.5t-14 68.5q0 45 16.5 74.5t45.5 47.5t69 27.5t88 15.5q66 8 99 22.5t33 50.5q0 35 -24 56t-72 21q-54 0 -80.5 -23t-28.5 -63h-120q1 34 15.5 65.5t43 55.5t70.5 38.5
t99 14.5q46 0 81.5 -7t61.5 -24q76 -46 76 -152v-281q0 -33 5.5 -51t14.5 -24v-9h-123zM253 74q33 0 58 10.5t42 27t26 38t9 44.5v79q-19 -12 -47 -20.5t-57 -14.5q-59 -11 -91 -28.5t-32 -61.5q0 -21 7.5 -35.5t20 -23t29.5 -12t35 -3.5zM336 744h122v-123h-122v123z
M114 744h122v-123h-122v123z" />
    <glyph glyph-name="aring" unicode="&#xe5;" horiz-adv-x="566" 
d="M404 0q-7 9 -11.5 25.5t-6.5 43.5h-2q-26 -35 -65 -58.5t-103 -23.5q-39 0 -72.5 10t-57.5 30t-38 49.5t-14 68.5q0 45 16.5 74.5t45.5 47.5t69 27.5t88 15.5q66 8 99 22.5t33 50.5q0 35 -24 56t-72 21q-54 0 -80.5 -23t-28.5 -63h-120q1 34 15.5 65.5t43 55.5t70.5 38.5
t99 14.5q46 0 81.5 -7t61.5 -24q76 -46 76 -152v-281q0 -33 5.5 -51t14.5 -24v-9h-123zM287 597q-23 0 -43 8t-35 22.5t-23.5 33.5t-8.5 42q0 22 8.5 41t23.5 33.5t35 23t43 8.5q22 0 41.5 -8.5t34.5 -23t23.5 -33.5t8.5 -41q0 -23 -8.5 -42t-23.5 -33.5t-34.5 -22.5
t-41.5 -8zM253 74q33 0 58 10.5t42 27t26 38t9 44.5v79q-19 -12 -47 -20.5t-57 -14.5q-59 -11 -91 -28.5t-32 -61.5q0 -21 7.5 -35.5t20 -23t29.5 -12t35 -3.5zM287 647q23 0 38 16t15 40t-15 40.5t-38 16.5q-25 0 -40 -16.5t-15 -40.5t15 -40t40 -16z" />
    <glyph glyph-name="ae" unicode="&#xe6;" horiz-adv-x="926" 
d="M234 -14q-92 0 -145 40.5t-53 118.5q0 45 16.5 74.5t45.5 47.5t69 27.5t88 15.5q66 8 99 22.5t33 49.5t-24 56.5t-72 21.5q-54 0 -80.5 -23t-29.5 -63h-119q1 34 15.5 65.5t43 55.5t70.5 38.5t99 14.5q65 0 110.5 -18.5t69.5 -57.5q30 35 73 55.5t100 20.5
q58 0 101.5 -19t76.5 -55q40 -42 57.5 -103.5t16.5 -135.5h-385q6 -69 40.5 -111.5t102.5 -42.5q43 0 70.5 19t39.5 51h124q-18 -74 -78.5 -120.5t-156.5 -46.5q-76 0 -127 30t-80 81q-40 -58 -90 -83.5t-121 -25.5zM254 74q33 0 58.5 10.5t42.5 27t26 38t9 44.5v78
q-19 -11 -47 -19.5t-58 -14.5q-58 -11 -90 -28.5t-32 -61.5q0 -21 7.5 -35.5t20 -23t29 -12t34.5 -3.5zM642 456q-60 0 -91.5 -39t-39.5 -102h253q-3 66 -35.5 103.5t-86.5 37.5z" />
    <glyph glyph-name="ccedilla" unicode="&#xe7;" horiz-adv-x="569" 
d="M265 -209q-36 0 -64 8.5t-48 21.5l18 36q34 -16 72 -16q23 0 39 7t16 27q0 16 -10.5 23t-27.5 7q-12 0 -21 -2t-17 -5l-17 26l59 63q-54 6 -97 30t-73 61t-46.5 85t-16.5 103q0 60 19 111.5t54 89.5t84.5 59.5t111.5 21.5q51 0 92.5 -14t72 -39t50 -60.5t26.5 -78.5h-124
q-9 44 -38.5 69.5t-77.5 25.5q-35 0 -61.5 -13.5t-44 -38.5t-26.5 -59t-9 -74q0 -39 9 -72.5t26.5 -58t44 -38.5t61.5 -14q53 0 83.5 29t35.5 82h124q-6 -89 -64 -146t-157 -63l-45 -40v-2q19 3 38 0.5t34.5 -11t25.5 -23.5t10 -37q0 -38 -33.5 -59.5t-87.5 -21.5z" />
    <glyph glyph-name="egrave" unicode="&#xe8;" horiz-adv-x="587" 
d="M303 -16q-64 0 -114.5 22t-85.5 60t-53.5 89.5t-18.5 110.5q0 60 19 111.5t54 89.5t84 59.5t108 21.5t104.5 -19.5t79.5 -55.5q39 -42 58 -102.5t18 -135.5h-399q7 -69 43.5 -111.5t103.5 -42.5q46 0 75.5 18.5t42.5 51.5h124q-10 -36 -30.5 -66.5t-51.5 -53t-71.5 -35
t-89.5 -12.5zM296 456q-63 0 -96 -39t-41 -102h266q-4 66 -37.5 103.5t-91.5 37.5zM148 772h151l53 -154h-98z" />
    <glyph glyph-name="eacute" unicode="&#xe9;" horiz-adv-x="587" 
d="M303 -16q-64 0 -114.5 22t-85.5 60t-53.5 89.5t-18.5 110.5q0 60 19 111.5t54 89.5t84 59.5t108 21.5t104.5 -19.5t79.5 -55.5q39 -42 58 -102.5t18 -135.5h-399q7 -69 43.5 -111.5t103.5 -42.5q46 0 75.5 18.5t42.5 51.5h124q-10 -36 -30.5 -66.5t-51.5 -53t-71.5 -35
t-89.5 -12.5zM296 456q-63 0 -96 -39t-41 -102h266q-4 66 -37.5 103.5t-91.5 37.5zM297 772h150l-105 -154h-98z" />
    <glyph glyph-name="ecircumflex" unicode="&#xea;" horiz-adv-x="587" 
d="M303 -16q-64 0 -114.5 22t-85.5 60t-53.5 89.5t-18.5 110.5q0 60 19 111.5t54 89.5t84 59.5t108 21.5t104.5 -19.5t79.5 -55.5q39 -42 58 -102.5t18 -135.5h-399q7 -69 43.5 -111.5t103.5 -42.5q46 0 75.5 18.5t42.5 51.5h124q-10 -36 -30.5 -66.5t-51.5 -53t-71.5 -35
t-89.5 -12.5zM296 456q-63 0 -96 -39t-41 -102h266q-4 66 -37.5 103.5t-91.5 37.5zM231 757h129l102 -136h-116l-49 77h-2l-51 -77h-116z" />
    <glyph glyph-name="edieresis" unicode="&#xeb;" horiz-adv-x="587" 
d="M303 -16q-64 0 -114.5 22t-85.5 60t-53.5 89.5t-18.5 110.5q0 60 19 111.5t54 89.5t84 59.5t108 21.5t104.5 -19.5t79.5 -55.5q39 -42 58 -102.5t18 -135.5h-399q7 -69 43.5 -111.5t103.5 -42.5q46 0 75.5 18.5t42.5 51.5h124q-10 -36 -30.5 -66.5t-51.5 -53t-71.5 -35
t-89.5 -12.5zM296 456q-63 0 -96 -39t-41 -102h266q-4 66 -37.5 103.5t-91.5 37.5zM125 744h122v-123h-122v123zM347 744h122v-123h-122v123z" />
    <glyph glyph-name="igrave" unicode="&#xec;" horiz-adv-x="242" 
d="M58 534h127v-534h-127v534zM-27 772h151l53 -154h-98z" />
    <glyph glyph-name="iacute" unicode="&#xed;" horiz-adv-x="242" 
d="M122 772h150l-105 -154h-98zM58 534h127v-534h-127v534z" />
    <glyph glyph-name="icircumflex" unicode="&#xee;" horiz-adv-x="242" 
d="M56 757h129l102 -136h-116l-49 77h-2l-51 -77h-116zM58 534h127v-534h-127v534z" />
    <glyph glyph-name="idieresis" unicode="&#xef;" horiz-adv-x="242" 
d="M58 534h127v-534h-127v534zM151 744h111v-123h-111v123zM-20 744h111v-123h-111v123z" />
    <glyph glyph-name="eth" unicode="&#xf0;" horiz-adv-x="607" 
d="M159 627l115 35q-25 21 -49.5 39.5t-47.5 35.5v7h157q14 -10 29 -21t30 -24l105 32l24 -55l-81 -25q27 -30 51.5 -67t42.5 -80.5t29 -94t11 -107.5q0 -68 -16.5 -126t-50 -101t-84.5 -67t-120 -24q-62 0 -112.5 22t-86 60t-55 89.5t-19.5 110.5t17 109.5t49 87t77 57.5
t101 21q38 0 74.5 -13t63.5 -45h3q-17 38 -40 70.5t-51 61.5l-143 -44zM303 80q35 0 61.5 14t44.5 39t27 59.5t9 75.5q0 40 -9.5 73.5t-27.5 58t-45 38t-62 13.5t-61.5 -13.5t-44 -38.5t-26.5 -59t-9 -74q0 -41 9 -75t27 -58.5t45 -38.5t62 -14z" />
    <glyph glyph-name="ntilde" unicode="&#xf1;" horiz-adv-x="589" 
d="M182 456h3q26 45 67.5 68.5t98.5 23.5q87 0 135.5 -49.5t48.5 -136.5v-362h-127v341q0 48 -26.5 75t-75.5 27q-27 0 -49 -9.5t-38 -27t-25 -41.5t-9 -52v-313h-127v534h124v-78zM368 621q-21 0 -39.5 6t-34.5 13.5t-29 14t-24 6.5q-13 0 -22 -10.5t-11 -29.5h-74
q1 63 28 94t69 31q22 0 39.5 -6.5t32.5 -14t27.5 -13.5t26.5 -6q15 0 22 10.5t9 27.5h75q-2 -57 -25.5 -90t-69.5 -33z" />
    <glyph glyph-name="ograve" unicode="&#xf2;" horiz-adv-x="606" 
d="M304 -16q-62 0 -112.5 22t-86 60t-55 89.5t-19.5 110.5q0 60 19.5 111.5t55 89.5t86 59.5t112.5 21.5t112 -21.5t85.5 -59.5t54.5 -89.5t19 -111.5q0 -59 -19 -110.5t-54.5 -89.5t-85.5 -60t-112 -22zM303 80q35 0 61.5 14t44.5 39t27.5 59t9.5 74t-9.5 74.5t-27.5 60
t-44.5 39.5t-61.5 14t-62 -14t-45 -39.5t-27 -60t-9 -74.5t9 -74t27 -59t45 -39t62 -14zM154 772h151l53 -154h-98z" />
    <glyph glyph-name="oacute" unicode="&#xf3;" horiz-adv-x="606" 
d="M303 772h150l-105 -154h-98zM304 -16q-62 0 -112.5 22t-86 60t-55 89.5t-19.5 110.5q0 60 19.5 111.5t55 89.5t86 59.5t112.5 21.5t112 -21.5t85.5 -59.5t54.5 -89.5t19 -111.5q0 -59 -19 -110.5t-54.5 -89.5t-85.5 -60t-112 -22zM303 80q35 0 61.5 14t44.5 39t27.5 59
t9.5 74t-9.5 74.5t-27.5 60t-44.5 39.5t-61.5 14t-62 -14t-45 -39.5t-27 -60t-9 -74.5t9 -74t27 -59t45 -39t62 -14z" />
    <glyph glyph-name="ocircumflex" unicode="&#xf4;" horiz-adv-x="606" 
d="M237 757h129l102 -136h-116l-49 77h-2l-51 -77h-116zM304 -16q-62 0 -112.5 22t-86 60t-55 89.5t-19.5 110.5q0 60 19.5 111.5t55 89.5t86 59.5t112.5 21.5t112 -21.5t85.5 -59.5t54.5 -89.5t19 -111.5q0 -59 -19 -110.5t-54.5 -89.5t-85.5 -60t-112 -22zM303 80
q35 0 61.5 14t44.5 39t27.5 59t9.5 74t-9.5 74.5t-27.5 60t-44.5 39.5t-61.5 14t-62 -14t-45 -39.5t-27 -60t-9 -74.5t9 -74t27 -59t45 -39t62 -14z" />
    <glyph glyph-name="otilde" unicode="&#xf5;" horiz-adv-x="606" 
d="M304 -16q-62 0 -112.5 22t-86 60t-55 89.5t-19.5 110.5q0 60 19.5 111.5t55 89.5t86 59.5t112.5 21.5t112 -21.5t85.5 -59.5t54.5 -89.5t19 -111.5q0 -59 -19 -110.5t-54.5 -89.5t-85.5 -60t-112 -22zM303 80q35 0 61.5 14t44.5 39t27.5 59t9.5 74t-9.5 74.5t-27.5 60
t-44.5 39.5t-61.5 14t-62 -14t-45 -39.5t-27 -60t-9 -74.5t9 -74t27 -59t45 -39t62 -14zM373 621q-21 0 -39.5 6t-34.5 13.5t-29 14t-24 6.5q-13 0 -22 -10.5t-11 -29.5h-74q1 63 28 94t69 31q22 0 39.5 -6.5t32.5 -14t27.5 -13.5t26.5 -6q15 0 22 10.5t9 27.5h75
q-2 -57 -25.5 -90t-69.5 -33z" />
    <glyph glyph-name="odieresis" unicode="&#xf6;" horiz-adv-x="606" 
d="M353 744h122v-123h-122v123zM131 744h122v-123h-122v123zM304 -16q-62 0 -112.5 22t-86 60t-55 89.5t-19.5 110.5q0 60 19.5 111.5t55 89.5t86 59.5t112.5 21.5t112 -21.5t85.5 -59.5t54.5 -89.5t19 -111.5q0 -59 -19 -110.5t-54.5 -89.5t-85.5 -60t-112 -22zM303 80
q35 0 61.5 14t44.5 39t27.5 59t9.5 74t-9.5 74.5t-27.5 60t-44.5 39.5t-61.5 14t-62 -14t-45 -39.5t-27 -60t-9 -74.5t9 -74t27 -59t45 -39t62 -14z" />
    <glyph glyph-name="divide" unicode="&#xf7;" horiz-adv-x="602" 
d="M232 602h139v-130h-139v130zM61 392h480v-102h-480v102zM232 209h139v-129h-139v129z" />
    <glyph glyph-name="oslash" unicode="&#xf8;" horiz-adv-x="606" 
d="M19 -6l76 83q-31 38 -47.5 86t-16.5 103q0 60 19.5 111.5t55 89.5t86 59.5t112.5 21.5q51 0 93.5 -15t75.5 -41l70 77l43 -38l-72 -79q29 -37 45 -84.5t16 -101.5q0 -59 -19 -110.5t-54.5 -89.5t-85.5 -60t-112 -22q-50 0 -92 14t-76 39l-74 -81zM158 266q0 -57 17 -100
l226 248q-36 41 -98 41q-35 0 -62 -14.5t-45.5 -39.5t-28 -60t-9.5 -75zM303 80q35 0 62 14t45 39t27.5 59t9.5 74q0 54 -15 96l-224 -246q36 -36 95 -36z" />
    <glyph glyph-name="ugrave" unicode="&#xf9;" horiz-adv-x="583" 
d="M402 0v76h-2q-29 -44 -66.5 -67t-94.5 -23q-88 0 -136.5 50.5t-48.5 137.5v360h127v-342q0 -48 26 -74t74 -26q54 0 86 36.5t32 92.5v313h126v-534h-123zM140 772h151l53 -154h-98z" />
    <glyph glyph-name="uacute" unicode="&#xfa;" horiz-adv-x="583" 
d="M402 0v76h-2q-29 -44 -66.5 -67t-94.5 -23q-88 0 -136.5 50.5t-48.5 137.5v360h127v-342q0 -48 26 -74t74 -26q54 0 86 36.5t32 92.5v313h126v-534h-123zM289 772h150l-105 -154h-98z" />
    <glyph glyph-name="ucircumflex" unicode="&#xfb;" horiz-adv-x="583" 
d="M402 0v76h-2q-29 -44 -66.5 -67t-94.5 -23q-88 0 -136.5 50.5t-48.5 137.5v360h127v-342q0 -48 26 -74t74 -26q54 0 86 36.5t32 92.5v313h126v-534h-123zM223 757h129l102 -136h-116l-49 77h-2l-51 -77h-116z" />
    <glyph glyph-name="udieresis" unicode="&#xfc;" horiz-adv-x="583" 
d="M402 0v76h-2q-29 -44 -66.5 -67t-94.5 -23q-88 0 -136.5 50.5t-48.5 137.5v360h127v-342q0 -48 26 -74t74 -26q54 0 86 36.5t32 92.5v313h126v-534h-123zM117 744h122v-123h-122v123zM339 744h122v-123h-122v123z" />
    <glyph glyph-name="yacute" unicode="&#xfd;" horiz-adv-x="539" 
d="M150 -182q-6 0 -20 0.5t-29 1.5t-28 2t-16 2v103h7q2 -1 8.5 -2t15 -1.5t16.5 -1t13 -0.5q32 0 51 13.5t27 45.5q0 4 0.5 14t0.5 23t-1.5 27t-5.5 25l-184 464h135l88 -248q8 -25 16.5 -54t14.5 -54l14 -58h2q7 30 15 59q7 25 15 53.5t16 53.5l85 248h128l-207 -564
q-17 -44 -34 -73.5t-38 -47t-46.5 -24.5t-58.5 -7zM273 772h150l-105 -154h-98z" />
    <glyph glyph-name="thorn" unicode="&#xfe;" horiz-adv-x="610" 
d="M348 -17q-54 0 -96.5 22t-67.5 63h-3q2 -15 3 -40.5t1 -63.5v-139h-127v919h127v-176q0 -32 -1 -62t-3 -51h3q26 42 67.5 67.5t98.5 25.5q52 0 94.5 -20t72.5 -57t46.5 -89t16.5 -116q0 -65 -16.5 -117t-46.5 -89t-73 -57t-96 -20zM322 84q31 0 55.5 13t40.5 37t24.5 57
t8.5 72q0 40 -8 73.5t-24.5 57.5t-40.5 37.5t-57 13.5q-36 0 -62.5 -14t-44 -39t-26 -58t-8.5 -71t8.5 -70.5t26 -56.5t44 -38t63.5 -14z" />
    <glyph glyph-name="ydieresis" unicode="&#xff;" horiz-adv-x="539" 
d="M150 -182q-6 0 -20 0.5t-29 1.5t-28 2t-16 2v103h7q2 -1 8.5 -2t15 -1.5t16.5 -1t13 -0.5q32 0 51 13.5t27 45.5q0 4 0.5 14t0.5 23t-1.5 27t-5.5 25l-184 464h135l88 -248q8 -25 16.5 -54t14.5 -54l14 -58h2q7 30 15 59q7 25 15 53.5t16 53.5l85 248h128l-207 -564
q-17 -44 -34 -73.5t-38 -47t-46.5 -24.5t-58.5 -7zM323 744h122v-123h-122v123zM101 744h122v-123h-122v123z" />
    <glyph glyph-name="Amacron" unicode="&#x100;" horiz-adv-x="718" 
d="M284 744h148l271 -744h-148l-59 177h-282l-60 -177h-140zM248 279h214l-57 172q-11 33 -19.5 64.5t-14.5 57.5q-7 30 -13 57h-2q-8 -31 -16 -63q-7 -27 -15.5 -58.5t-17.5 -57.5zM209 886h299v-94h-299v94z" />
    <glyph glyph-name="amacron" unicode="&#x101;" horiz-adv-x="566" 
d="M404 0q-7 9 -11.5 25.5t-6.5 43.5h-2q-26 -35 -65 -58.5t-103 -23.5q-39 0 -72.5 10t-57.5 30t-38 49.5t-14 68.5q0 45 16.5 74.5t45.5 47.5t69 27.5t88 15.5q66 8 99 22.5t33 50.5q0 35 -24 56t-72 21q-54 0 -80.5 -23t-28.5 -63h-120q1 34 15.5 65.5t43 55.5t70.5 38.5
t99 14.5q46 0 81.5 -7t61.5 -24q76 -46 76 -152v-281q0 -33 5.5 -51t14.5 -24v-9h-123zM253 74q33 0 58 10.5t42 27t26 38t9 44.5v79q-19 -12 -47 -20.5t-57 -14.5q-59 -11 -91 -28.5t-32 -61.5q0 -21 7.5 -35.5t20 -23t29.5 -12t35 -3.5zM138 730h294v-94h-294v94z" />
    <glyph glyph-name="Abreve" unicode="&#x102;" horiz-adv-x="718" 
d="M284 744h148l271 -744h-148l-59 177h-282l-60 -177h-140zM248 279h214l-57 172q-11 33 -19.5 64.5t-14.5 57.5q-7 30 -13 57h-2q-8 -31 -16 -63q-7 -27 -15.5 -58.5t-17.5 -57.5zM360 779q-64 0 -106 37.5t-45 98.5h79q5 -23 22 -37.5t49 -14.5q31 0 48.5 15t22.5 37h77
q-1 -29 -12 -53.5t-30 -43t-45.5 -29t-59.5 -10.5z" />
    <glyph glyph-name="abreve" unicode="&#x103;" horiz-adv-x="566" 
d="M404 0q-7 9 -11.5 25.5t-6.5 43.5h-2q-26 -35 -65 -58.5t-103 -23.5q-39 0 -72.5 10t-57.5 30t-38 49.5t-14 68.5q0 45 16.5 74.5t45.5 47.5t69 27.5t88 15.5q66 8 99 22.5t33 50.5q0 35 -24 56t-72 21q-54 0 -80.5 -23t-28.5 -63h-120q1 34 15.5 65.5t43 55.5t70.5 38.5
t99 14.5q46 0 81.5 -7t61.5 -24q76 -46 76 -152v-281q0 -33 5.5 -51t14.5 -24v-9h-123zM253 74q33 0 58 10.5t42 27t26 38t9 44.5v79q-19 -12 -47 -20.5t-57 -14.5q-59 -11 -91 -28.5t-32 -61.5q0 -21 7.5 -35.5t20 -23t29.5 -12t35 -3.5zM288 613q-63 0 -106 38t-46 104h79
q4 -28 22 -43.5t50 -15.5q31 0 49.5 16.5t22.5 42.5h77q-2 -63 -42 -102.5t-106 -39.5z" />
    <glyph glyph-name="Aogonek" unicode="&#x104;" horiz-adv-x="718" 
d="M637 -187q-59 0 -88 23.5t-29 62.5q0 19 7.5 35t18.5 28.5t25 22t28 15.5h-44l-60 177h-281l-60 -177h-140l270 744h148l270 -741q-36 -17 -55 -40t-19 -43q0 -31 37 -31q20 0 35 5h3v-72q-10 -4 -26 -6.5t-40 -2.5zM249 279h213l-57 172q-11 33 -19.5 64.5t-14.5 57.5
q-7 30 -13 57h-2q-8 -31 -16 -63q-7 -27 -15.5 -58.5t-17.5 -57.5z" />
    <glyph glyph-name="aogonek" unicode="&#x105;" horiz-adv-x="572" 
d="M467 -187q-59 0 -87.5 23.5t-28.5 62.5q0 37 24.5 62.5t51.5 40.5h-22q-6 8 -11 24.5t-7 42.5h-1q-26 -35 -65 -58.5t-103 -23.5q-39 0 -72.5 10t-57.5 30t-38 49.5t-14 68.5q0 45 16.5 74.5t45.5 47.5t69 27.5t88 15.5q66 8 99 22.5t33 50.5q0 35 -24 56t-72 21
q-54 0 -80.5 -23t-29.5 -63h-119q1 34 15.5 65.5t43 55.5t70.5 38.5t99 14.5q46 0 81.5 -7t61.5 -24q76 -46 76 -152v-281q0 -33 5.5 -51t14.5 -24v-9q-32 -12 -51.5 -34.5t-19.5 -45.5q0 -31 38 -31q19 0 34 5h3v-72q-10 -4 -25.5 -6.5t-40.5 -2.5zM254 74q33 0 58.5 10.5
t42.5 27t26 38t9 44.5v79q-19 -12 -47 -20.5t-58 -14.5q-58 -11 -90 -28.5t-32 -61.5q0 -21 7.5 -35.5t20 -23t29 -12t34.5 -3.5z" />
    <glyph glyph-name="Cacute" unicode="&#x106;" horiz-adv-x="752" 
d="M398 -16q-81 0 -147 29t-113 80.5t-72.5 122t-25.5 154.5q0 83 25 154t71.5 123t113 81.5t149.5 29.5q64 0 116 -16t90 -45q45 -35 71.5 -84t33.5 -108h-138q-10 60 -55 98t-119 38q-53 0 -93.5 -20.5t-68 -57t-41.5 -86t-14 -107.5q0 -59 15.5 -108.5t44 -85t68.5 -55.5
t90 -20q42 0 74 13t54.5 35.5t35.5 52t16 63.5h139q-2 -56 -26.5 -108.5t-63.5 -90.5q-82 -82 -230 -82zM378 913h154l-100 -128h-102z" />
    <glyph glyph-name="cacute" unicode="&#x107;" horiz-adv-x="569" 
d="M294 772h150l-105 -154h-98zM302 -16q-62 0 -112 22t-85.5 60t-54.5 89.5t-19 110.5q0 60 19 111.5t54 89.5t84.5 59.5t111.5 21.5q51 0 92.5 -14t72 -39t50 -60.5t26.5 -78.5h-124q-9 44 -38.5 69.5t-77.5 25.5q-35 0 -61.5 -13.5t-44 -38.5t-26.5 -59t-9 -74
q0 -39 9 -72.5t26.5 -58t44 -38.5t61.5 -14q53 0 83.5 29t35.5 82h124q-3 -47 -21 -85.5t-49.5 -66t-74.5 -43t-97 -15.5z" />
    <glyph glyph-name="Ccircumflex" unicode="&#x108;" horiz-adv-x="752" 
d="M398 -16q-81 0 -147 29t-113 80.5t-72.5 122t-25.5 154.5q0 83 25 154t71.5 123t113 81.5t149.5 29.5q64 0 116 -16t90 -45q45 -35 71.5 -84t33.5 -108h-138q-10 60 -55 98t-119 38q-53 0 -93.5 -20.5t-68 -57t-41.5 -86t-14 -107.5q0 -59 15.5 -108.5t44 -85t68.5 -55.5
t90 -20q42 0 74 13t54.5 35.5t35.5 52t16 63.5h139q-2 -56 -26.5 -108.5t-63.5 -90.5q-82 -82 -230 -82zM321 908h129l104 -123h-117l-50 59h-2l-52 -59h-117z" />
    <glyph glyph-name="ccircumflex" unicode="&#x109;" horiz-adv-x="569" 
d="M228 757h129l102 -136h-116l-49 77h-2l-51 -77h-116zM302 -16q-62 0 -112 22t-85.5 60t-54.5 89.5t-19 110.5q0 60 19 111.5t54 89.5t84.5 59.5t111.5 21.5q51 0 92.5 -14t72 -39t50 -60.5t26.5 -78.5h-124q-9 44 -38.5 69.5t-77.5 25.5q-35 0 -61.5 -13.5t-44 -38.5
t-26.5 -59t-9 -74q0 -39 9 -72.5t26.5 -58t44 -38.5t61.5 -14q53 0 83.5 29t35.5 82h124q-3 -47 -21 -85.5t-49.5 -66t-74.5 -43t-97 -15.5z" />
    <glyph glyph-name="Cdotaccent" unicode="&#x10a;" horiz-adv-x="752" 
d="M322 907h130v-122h-130v122zM398 -16q-81 0 -147 29t-113 80.5t-72.5 122t-25.5 154.5q0 83 25 154t71.5 123t113 81.5t149.5 29.5q64 0 116 -16t90 -45q45 -35 71.5 -84t33.5 -108h-138q-10 60 -55 98t-119 38q-53 0 -93.5 -20.5t-68 -57t-41.5 -86t-14 -107.5
q0 -59 15.5 -108.5t44 -85t68.5 -55.5t90 -20q42 0 74 13t54.5 35.5t35.5 52t16 63.5h139q-2 -56 -26.5 -108.5t-63.5 -90.5q-82 -82 -230 -82z" />
    <glyph glyph-name="cdotaccent" unicode="&#x10b;" horiz-adv-x="569" 
d="M302 -16q-62 0 -112 22t-85.5 60t-54.5 89.5t-19 110.5q0 60 19 111.5t54 89.5t84.5 59.5t111.5 21.5q51 0 92.5 -14t72 -39t50 -60.5t26.5 -78.5h-124q-9 44 -38.5 69.5t-77.5 25.5q-35 0 -61.5 -13.5t-44 -38.5t-26.5 -59t-9 -74q0 -39 9 -72.5t26.5 -58t44 -38.5
t61.5 -14q53 0 83.5 29t35.5 82h124q-3 -47 -21 -85.5t-49.5 -66t-74.5 -43t-97 -15.5zM229 744h130v-123h-130v123z" />
    <glyph glyph-name="Ccaron" unicode="&#x10c;" horiz-adv-x="752" 
d="M398 -16q-81 0 -147 29t-113 80.5t-72.5 122t-25.5 154.5q0 83 25 154t71.5 123t113 81.5t149.5 29.5q64 0 116 -16t90 -45q45 -35 71.5 -84t33.5 -108h-138q-10 60 -55 98t-119 38q-53 0 -93.5 -20.5t-68 -57t-41.5 -86t-14 -107.5q0 -59 15.5 -108.5t44 -85t68.5 -55.5
t90 -20q42 0 74 13t54.5 35.5t35.5 52t16 63.5h139q-2 -56 -26.5 -108.5t-63.5 -90.5q-82 -82 -230 -82zM451 785h-129l-104 123h117l50 -59h2l52 59h117z" />
    <glyph glyph-name="ccaron" unicode="&#x10d;" horiz-adv-x="569" 
d="M358 618h-129l-102 137h116l49 -77h2l51 77h116zM302 -16q-62 0 -112 22t-85.5 60t-54.5 89.5t-19 110.5q0 60 19 111.5t54 89.5t84.5 59.5t111.5 21.5q51 0 92.5 -14t72 -39t50 -60.5t26.5 -78.5h-124q-9 44 -38.5 69.5t-77.5 25.5q-35 0 -61.5 -13.5t-44 -38.5
t-26.5 -59t-9 -74q0 -39 9 -72.5t26.5 -58t44 -38.5t61.5 -14q53 0 83.5 29t35.5 82h124q-3 -47 -21 -85.5t-49.5 -66t-74.5 -43t-97 -15.5z" />
    <glyph glyph-name="Dcaron" unicode="&#x10e;" horiz-adv-x="741" 
d="M407 785h-129l-104 123h117l50 -59h2l52 59h117zM71 744h293q81 0 143.5 -27t106 -76.5t66 -118.5t22.5 -154q0 -83 -22.5 -151t-66 -116t-108.5 -74.5t-149 -26.5h-285v744zM347 118q110 0 161.5 66.5t51.5 183.5q0 58 -12 105.5t-37.5 81.5t-65 52.5t-94.5 18.5h-141
v-508h137z" />
    <glyph glyph-name="dcaron" unicode="&#x10f;" horiz-adv-x="610" 
d="M263 -17q-53 0 -96 19.5t-73 56.5t-46.5 89.5t-16.5 117.5q0 64 17 116t48 89t73.5 57t93.5 20q56 0 97 -24.5t67 -66.5h2q-2 22 -3 51.5t-1 59.5v176h127v-744h-123v78h-2q-25 -47 -67 -71t-97 -24zM289 87q35 0 61.5 13t44 37t26.5 57t9 72q0 40 -9 73.5t-26.5 58
t-44 38t-61.5 13.5q-32 0 -56.5 -13.5t-40.5 -38t-24 -58t-8 -72.5q0 -80 32 -130t97 -50zM714 671q0 -61 -31.5 -88t-85.5 -30v47q28 4 40.5 16.5t13.5 34.5h-53v93h116v-73z" />
    <glyph glyph-name="Dcroat" unicode="&#x110;" horiz-adv-x="747" 
d="M11 431h66v313h294q81 0 144 -27t106 -76.5t65.5 -118.5t22.5 -154q0 -83 -22.5 -151t-66 -116t-108.5 -74.5t-150 -26.5h-285v320h-66v111zM354 118q110 0 161.5 66.5t51.5 183.5q0 58 -12 105.5t-37.5 81.5t-65 52.5t-94.5 18.5h-142v-195h189v-111h-189v-202h138z" />
    <glyph glyph-name="dcroat" unicode="&#x111;" horiz-adv-x="610" 
d="M617 602h-65v-602h-123v78h-2q-25 -47 -67 -71t-97 -24q-53 0 -96 19.5t-73 56.5t-46.5 89.5t-16.5 117.5q0 64 17 116t48 89t73.5 57t93.5 20q56 0 97 -24.5t67 -66.5h2q-2 22 -3 51.5t-1 59.5v34h-144v71h144v71h127v-71h65v-71zM289 87q35 0 61.5 13t44 37t26.5 57
t9 72q0 40 -9 73.5t-26.5 58t-44 38t-61.5 13.5q-32 0 -56.5 -13.5t-40.5 -38t-24 -58t-8 -72.5q0 -80 32 -130t97 -50z" />
    <glyph glyph-name="Emacron" unicode="&#x112;" horiz-adv-x="668" 
d="M70 744h544v-118h-406v-184h359v-111h-359v-210h415v-121h-553v744zM203 886h299v-94h-299v94z" />
    <glyph glyph-name="emacron" unicode="&#x113;" horiz-adv-x="587" 
d="M303 -16q-64 0 -114.5 22t-85.5 60t-53.5 89.5t-18.5 110.5q0 60 19 111.5t54 89.5t84 59.5t108 21.5t104.5 -19.5t79.5 -55.5q39 -42 58 -102.5t18 -135.5h-399q7 -69 43.5 -111.5t103.5 -42.5q46 0 75.5 18.5t42.5 51.5h124q-10 -36 -30.5 -66.5t-51.5 -53t-71.5 -35
t-89.5 -12.5zM296 456q-63 0 -96 -39t-41 -102h266q-4 66 -37.5 103.5t-91.5 37.5zM149 730h294v-94h-294v94z" />
    <glyph glyph-name="Ebreve" unicode="&#x114;" horiz-adv-x="668" 
d="M70 744h544v-118h-406v-184h359v-111h-359v-210h415v-121h-553v744zM354 779q-64 0 -106 37.5t-45 98.5h79q5 -23 22 -37.5t49 -14.5q31 0 48.5 15t22.5 37h77q-1 -29 -12 -53.5t-30 -43t-45.5 -29t-59.5 -10.5z" />
    <glyph glyph-name="ebreve" unicode="&#x115;" horiz-adv-x="587" 
d="M303 -16q-64 0 -114.5 22t-85.5 60t-53.5 89.5t-18.5 110.5q0 60 19 111.5t54 89.5t84 59.5t108 21.5t104.5 -19.5t79.5 -55.5q39 -42 58 -102.5t18 -135.5h-399q7 -69 43.5 -111.5t103.5 -42.5q46 0 75.5 18.5t42.5 51.5h124q-10 -36 -30.5 -66.5t-51.5 -53t-71.5 -35
t-89.5 -12.5zM296 456q-63 0 -96 -39t-41 -102h266q-4 66 -37.5 103.5t-91.5 37.5zM298 613q-63 0 -106 38t-46 104h79q4 -28 22 -43.5t50 -15.5q31 0 49.5 16.5t22.5 42.5h77q-2 -63 -42 -102.5t-106 -39.5z" />
    <glyph glyph-name="Edotaccent" unicode="&#x116;" horiz-adv-x="668" 
d="M70 744h544v-118h-406v-184h359v-111h-359v-210h415v-121h-553v744zM288 907h130v-122h-130v122z" />
    <glyph glyph-name="edotaccent" unicode="&#x117;" horiz-adv-x="587" 
d="M303 -16q-64 0 -114.5 22t-85.5 60t-53.5 89.5t-18.5 110.5q0 60 19 111.5t54 89.5t84 59.5t108 21.5t104.5 -19.5t79.5 -55.5q39 -42 58 -102.5t18 -135.5h-399q7 -69 43.5 -111.5t103.5 -42.5q46 0 75.5 18.5t42.5 51.5h124q-10 -36 -30.5 -66.5t-51.5 -53t-71.5 -35
t-89.5 -12.5zM296 456q-63 0 -96 -39t-41 -102h266q-4 66 -37.5 103.5t-91.5 37.5zM232 744h130v-123h-130v123z" />
    <glyph glyph-name="Eogonek" unicode="&#x118;" horiz-adv-x="668" 
d="M70 744h544v-118h-406v-184h359v-111h-359v-210h415v-121h-58q-23 -19 -39 -40t-16 -40q0 -31 37 -31q20 0 35 5h2v-72q-10 -4 -25.5 -6.5t-39.5 -2.5q-59 0 -88 23.5t-29 62.5q0 37 23 62t51 39h-406v744z" />
    <glyph glyph-name="eogonek" unicode="&#x119;" horiz-adv-x="587" 
d="M377 -187q-59 0 -87.5 23.5t-28.5 62.5q0 29 17 50.5t39 35.5q-2 -1 -7 -1h-7q-64 0 -114.5 22t-85.5 60t-53.5 89.5t-18.5 110.5q0 60 19 111.5t54 89.5t84 59.5t108 21.5t104.5 -19.5t79.5 -55.5q39 -42 58 -102.5t18 -135.5h-399q7 -69 43.5 -111.5t103.5 -42.5
q46 0 75.5 18.5t42.5 51.5h124q-12 -46 -36.5 -74t-47.5 -48q-17 -13 -33.5 -26.5t-30 -27t-22 -27.5t-8.5 -28q0 -31 38 -31q19 0 34 5h3v-72q-10 -4 -25.5 -6.5t-40.5 -2.5zM296 456q-62 0 -95.5 -39.5t-41.5 -101.5h266q-4 66 -37.5 103.5t-91.5 37.5z" />
    <glyph glyph-name="Ecaron" unicode="&#x11a;" horiz-adv-x="668" 
d="M70 744h544v-118h-406v-184h359v-111h-359v-210h415v-121h-553v744zM417 785h-129l-104 123h117l50 -59h2l52 59h117z" />
    <glyph glyph-name="ecaron" unicode="&#x11b;" horiz-adv-x="587" 
d="M303 -16q-64 0 -114.5 22t-85.5 60t-53.5 89.5t-18.5 110.5q0 60 19 111.5t54 89.5t84 59.5t108 21.5t104.5 -19.5t79.5 -55.5q39 -42 58 -102.5t18 -135.5h-399q7 -69 43.5 -111.5t103.5 -42.5q46 0 75.5 18.5t42.5 51.5h124q-10 -36 -30.5 -66.5t-51.5 -53t-71.5 -35
t-89.5 -12.5zM296 456q-63 0 -96 -39t-41 -102h266q-4 66 -37.5 103.5t-91.5 37.5zM361 618h-129l-102 137h116l49 -77h2l51 77h116z" />
    <glyph glyph-name="Gcircumflex" unicode="&#x11c;" horiz-adv-x="783" 
d="M617 102h-4q-36 -61 -93.5 -90t-127.5 -29q-79 0 -143 28t-110 78q-48 52 -73 123t-25 157q0 91 29 166.5t84 128.5q45 45 106.5 69.5t141.5 24.5q68 0 122 -17.5t93.5 -48.5t64.5 -75t35 -96h-140q-15 52 -57 86.5t-116 34.5q-57 0 -98.5 -21t-69 -58t-41 -86.5
t-13.5 -107.5q0 -60 16 -109.5t45 -85t70 -55.5t91 -20q47 0 82.5 15t60 39.5t37 57t12.5 68.5v9h-180v108h313v-396h-93zM327 908h129l104 -123h-117l-50 59h-2l-52 -59h-117z" />
    <glyph glyph-name="gcircumflex" unicode="&#x11d;" horiz-adv-x="605" 
d="M295 -186q-108 0 -171 41.5t-73 117.5h122q13 -66 120 -66q129 0 129 117v13q0 22 0.5 41t1.5 33h-3q-25 -40 -61 -61t-90 -21q-49 0 -91.5 18t-74 51t-49.5 80.5t-18 107.5t17.5 108.5t47.5 82.5t71.5 52.5t89.5 18.5q111 0 158 -83h2v69h123v-499q0 -57 -17.5 -98
t-49.5 -69q-33 -28 -80 -41t-104 -13zM293 127q36 0 61.5 12.5t41.5 34t23.5 51.5t7.5 65q0 72 -33 115.5t-102 43.5q-63 0 -96 -43.5t-33 -117.5t33.5 -117.5t96.5 -43.5zM233 757h129l102 -136h-116l-49 77h-2l-51 -77h-116z" />
    <glyph glyph-name="Gbreve" unicode="&#x11e;" horiz-adv-x="783" 
d="M617 102h-4q-36 -61 -93.5 -90t-127.5 -29q-79 0 -143 28t-110 78q-48 52 -73 123t-25 157q0 91 29 166.5t84 128.5q45 45 106.5 69.5t141.5 24.5q68 0 122 -17.5t93.5 -48.5t64.5 -75t35 -96h-140q-15 52 -57 86.5t-116 34.5q-57 0 -98.5 -21t-69 -58t-41 -86.5
t-13.5 -107.5q0 -60 16 -109.5t45 -85t70 -55.5t91 -20q47 0 82.5 15t60 39.5t37 57t12.5 68.5v9h-180v108h313v-396h-93zM395 779q-64 0 -106 37.5t-45 98.5h79q5 -23 22 -37.5t49 -14.5q31 0 48.5 15t22.5 37h77q-1 -29 -12 -53.5t-30 -43t-45.5 -29t-59.5 -10.5z" />
    <glyph glyph-name="gbreve" unicode="&#x11f;" horiz-adv-x="605" 
d="M295 -186q-108 0 -171 41.5t-73 117.5h122q13 -66 120 -66q129 0 129 117v13q0 22 0.5 41t1.5 33h-3q-25 -40 -61 -61t-90 -21q-49 0 -91.5 18t-74 51t-49.5 80.5t-18 107.5t17.5 108.5t47.5 82.5t71.5 52.5t89.5 18.5q111 0 158 -83h2v69h123v-499q0 -57 -17.5 -98
t-49.5 -69q-33 -28 -80 -41t-104 -13zM293 127q36 0 61.5 12.5t41.5 34t23.5 51.5t7.5 65q0 72 -33 115.5t-102 43.5q-63 0 -96 -43.5t-33 -117.5t33.5 -117.5t96.5 -43.5zM300 613q-63 0 -106 38t-46 104h79q4 -28 22 -43.5t50 -15.5q31 0 49.5 16.5t22.5 42.5h77
q-2 -63 -42 -102.5t-106 -39.5z" />
    <glyph glyph-name="Gdotaccent" unicode="&#x120;" horiz-adv-x="783" 
d="M617 102h-4q-36 -61 -93.5 -90t-127.5 -29q-79 0 -143 28t-110 78q-48 52 -73 123t-25 157q0 91 29 166.5t84 128.5q45 45 106.5 69.5t141.5 24.5q68 0 122 -17.5t93.5 -48.5t64.5 -75t35 -96h-140q-15 52 -57 86.5t-116 34.5q-57 0 -98.5 -21t-69 -58t-41 -86.5
t-13.5 -107.5q0 -60 16 -109.5t45 -85t70 -55.5t91 -20q47 0 82.5 15t60 39.5t37 57t12.5 68.5v9h-180v108h313v-396h-93zM329 907h130v-122h-130v122z" />
    <glyph glyph-name="gdotaccent" unicode="&#x121;" horiz-adv-x="605" 
d="M295 -186q-108 0 -171 41.5t-73 117.5h122q13 -66 120 -66q129 0 129 117v13q0 22 0.5 41t1.5 33h-3q-25 -40 -61 -61t-90 -21q-49 0 -91.5 18t-74 51t-49.5 80.5t-18 107.5t17.5 108.5t47.5 82.5t71.5 52.5t89.5 18.5q111 0 158 -83h2v69h123v-499q0 -57 -17.5 -98
t-49.5 -69q-33 -28 -80 -41t-104 -13zM293 127q36 0 61.5 12.5t41.5 34t23.5 51.5t7.5 65q0 72 -33 115.5t-102 43.5q-63 0 -96 -43.5t-33 -117.5t33.5 -117.5t96.5 -43.5zM234 744h130v-123h-130v123z" />
    <glyph glyph-name="Gcommaaccent" unicode="&#x122;" horiz-adv-x="783" 
d="M617 102h-4q-36 -61 -93.5 -90t-127.5 -29q-79 0 -143 28t-110 78q-48 52 -73 123t-25 157q0 91 29 166.5t84 128.5q45 45 106.5 69.5t141.5 24.5q68 0 122 -17.5t93.5 -48.5t64.5 -75t35 -96h-140q-15 52 -57 86.5t-116 34.5q-57 0 -98.5 -21t-69 -58t-41 -86.5
t-13.5 -107.5q0 -60 16 -109.5t45 -85t70 -55.5t91 -20q47 0 82.5 15t60 39.5t37 57t12.5 68.5v9h-180v108h313v-396h-93zM460 -131q0 -62 -37.5 -91t-95.5 -33v49q29 5 46 18t17 37h-61v100h131v-80z" />
    <glyph glyph-name="gcommaaccent" unicode="&#x123;" horiz-adv-x="605" 
d="M295 -186q-108 0 -171 41.5t-73 117.5h122q13 -66 120 -66q129 0 129 117v13q0 22 0.5 41t1.5 33h-3q-25 -40 -61 -61t-90 -21q-49 0 -91.5 18t-74 51t-49.5 80.5t-18 107.5t17.5 108.5t47.5 82.5t71.5 52.5t89.5 18.5q111 0 158 -83h2v69h123v-499q0 -57 -17.5 -98
t-49.5 -69q-33 -28 -80 -41t-104 -13zM293 127q36 0 61.5 12.5t41.5 34t23.5 51.5t7.5 65q0 72 -33 115.5t-102 43.5q-63 0 -96 -43.5t-33 -117.5t33.5 -117.5t96.5 -43.5zM232 700q0 62 37.5 91.5t95.5 32.5v-49q-29 -5 -46 -18t-17 -37h61v-99h-131v79z" />
    <glyph glyph-name="Hcircumflex" unicode="&#x124;" horiz-adv-x="745" 
d="M70 744h138v-299h329v299h139v-744h-139v330h-329v-330h-138v744zM306 908h129l104 -123h-117l-50 59h-2l-52 -59h-117z" />
    <glyph glyph-name="hcircumflex" unicode="&#x125;" horiz-adv-x="589" 
d="M185 544q0 -11 -0.5 -37.5t-1.5 -49.5h3q27 43 67.5 67t97.5 24q87 0 135.5 -49.5t48.5 -136.5v-362h-127v341q0 48 -26.5 75t-75.5 27q-27 0 -49 -9.5t-38 -27t-25 -41.5t-9 -52v-313h-127v744h127v-200zM230 908h129l104 -123h-117l-50 59h-2l-52 -59h-117z" />
    <glyph glyph-name="Hbar" unicode="&#x126;" horiz-adv-x="745" 
d="M2 622h68v122h138v-122h329v122h139v-122h67v-83h-67v-539h-139v330h-329v-330h-138v539h-68v83zM208 442h329v97h-329v-97z" />
    <glyph glyph-name="hbar" unicode="&#x127;" horiz-adv-x="589" 
d="M-7 673h65v71h127v-71h144v-71h-144v-58q0 -11 -0.5 -37.5t-1.5 -49.5h3q27 43 67.5 67t97.5 24q87 0 135.5 -49.5t48.5 -136.5v-362h-127v341q0 48 -26.5 75t-75.5 27q-27 0 -49 -9.5t-38 -27t-25 -41.5t-9 -52v-313h-127v602h-65v71z" />
    <glyph glyph-name="Itilde" unicode="&#x128;" horiz-adv-x="280" 
d="M70 744h139v-744h-139v744zM210 786q-21 0 -39.5 6t-34.5 13.5t-29 14t-24 6.5q-12 0 -21 -11t-11 -29h-75q1 62 28 93.5t69 31.5q22 0 39.5 -6t32 -13.5t27 -13.5t26.5 -6q15 0 22 10t9 27h76q-2 -57 -25.5 -90t-69.5 -33z" />
    <glyph glyph-name="itilde" unicode="&#x129;" horiz-adv-x="242" 
d="M58 534h127v-534h-127v534zM191 621q-21 0 -39.5 6t-34.5 13.5t-29 14t-24 6.5q-13 0 -22 -10.5t-11 -29.5h-74q1 63 28 94t69 31q22 0 39.5 -6.5t32.5 -14t27.5 -13.5t26.5 -6q15 0 22 10.5t9 27.5h75q-2 -57 -25.5 -90t-69.5 -33z" />
    <glyph glyph-name="Imacron" unicode="&#x12a;" horiz-adv-x="280" 
d="M70 744h139v-744h-139v744zM6 886h268v-94h-268v94z" />
    <glyph glyph-name="imacron" unicode="&#x12b;" horiz-adv-x="242" 
d="M58 534h127v-534h-127v534zM4 730h234v-94h-234v94z" />
    <glyph glyph-name="Ibreve" unicode="&#x12c;" horiz-adv-x="280" 
d="M70 744h139v-744h-139v744zM142 779q-64 0 -106 37.5t-45 98.5h79q5 -23 22 -37.5t49 -14.5q31 0 48.5 15t22.5 37h77q-1 -29 -12 -53.5t-30 -43t-45.5 -29t-59.5 -10.5z" />
    <glyph glyph-name="ibreve" unicode="&#x12d;" horiz-adv-x="242" 
d="M58 534h127v-534h-127v534zM123 613q-63 0 -106 38t-46 104h79q4 -28 22 -43.5t50 -15.5q31 0 49.5 16.5t22.5 42.5h77q-2 -63 -42 -102.5t-106 -39.5z" />
    <glyph glyph-name="Iogonek" unicode="&#x12e;" horiz-adv-x="280" 
d="M70 744h139v-743q-30 -16 -47.5 -38.5t-17.5 -42.5q0 -31 38 -31q19 0 34 5h3v-72q-10 -4 -25.5 -6.5t-40.5 -2.5q-59 0 -88 23.5t-29 62.5q0 18 7 33.5t18 28.5t24.5 22.5t26.5 16.5h-42v744z" />
    <glyph glyph-name="iogonek" unicode="&#x12f;" horiz-adv-x="242" 
d="M58 534h127v-533q-29 -17 -46 -39.5t-17 -41.5q0 -31 37 -31q20 0 35 5h2v-72q-10 -4 -25.5 -6.5t-39.5 -2.5q-58 0 -87 23.5t-29 62.5q0 19 7 34.5t17.5 28t24 22t26.5 16.5h-32v534zM56 744h130v-123h-130v123z" />
    <glyph glyph-name="Idotaccent" unicode="&#x130;" horiz-adv-x="280" 
d="M70 744h139v-744h-139v744zM76 907h130v-122h-130v122z" />
    <glyph glyph-name="dotlessi" unicode="&#x131;" horiz-adv-x="242" 
d="M58 534h127v-534h-127v534z" />
    <glyph glyph-name="IJ" unicode="&#x132;" horiz-adv-x="818" 
d="M70 744h139v-744h-139v744zM525 -14q-118 0 -179 61.5t-61 179.5v38h130v-34q0 -74 26.5 -102.5t78.5 -28.5q98 0 98 110v534h139v-539q0 -94 -50 -148q-29 -33 -74.5 -52t-107.5 -19z" />
    <glyph glyph-name="ij" unicode="&#x133;" horiz-adv-x="485" 
d="M284 -176q-19 0 -38.5 2t-33.5 5v93h5q9 0 17 -0.5t16 0.5q25 2 37.5 13t12.5 40v557h127v-562q0 -46 -10.5 -72.5t-27.5 -42.5q-20 -18 -46.5 -25.5t-58.5 -7.5zM58 534h127v-534h-127v534zM298 744h130v-123h-130v123zM56 744h130v-123h-130v123z" />
    <glyph glyph-name="Jcircumflex" unicode="&#x134;" horiz-adv-x="560" 
d="M268 -14q-118 0 -179 61.5t-61 179.5v38h130v-34q0 -74 26.5 -102.5t78.5 -28.5q98 0 98 110v534h139v-539q0 -94 -50 -148q-29 -33 -74.5 -52t-107.5 -19zM361 908h129l104 -123h-117l-50 59h-2l-52 -59h-117z" />
    <glyph glyph-name="jcircumflex" unicode="&#x135;" horiz-adv-x="243" 
d="M42 -176q-19 0 -38.5 2t-33.5 5v93h5q9 0 17 -0.5t16 0.5q25 2 37.5 13t12.5 40v557h127v-562q0 -46 -10.5 -72.5t-27.5 -42.5q-20 -18 -46.5 -25.5t-58.5 -7.5zM55 757h129l102 -136h-116l-49 77h-2l-51 -77h-116z" />
    <glyph glyph-name="Kcommaaccent" unicode="&#x136;" horiz-adv-x="713" 
d="M70 744h138v-172q0 -45 -1.5 -87t-3.5 -71l316 330h168l-292 -298l313 -446h-162l-250 357l-88 -89v-268h-138v744zM425 -131q0 -62 -37.5 -91t-95.5 -33v49q29 5 46 18t17 37h-61v100h131v-80z" />
    <glyph glyph-name="kcommaaccent" unicode="&#x137;" horiz-adv-x="568" 
d="M247 256l-63 -63v-193h-126v744h126v-288q0 -38 -1.5 -73t-2.5 -58l201 209h151l-196 -195l219 -339h-148zM350 -131q0 -62 -37.5 -91t-95.5 -33v49q29 5 46 18t17 37h-61v100h131v-80z" />
    <glyph glyph-name="kgreenlandic" unicode="&#x138;" horiz-adv-x="568" 
d="M247 256l-63 -63v-193h-126v534h126v-78q0 -38 -1.5 -73t-2.5 -58l201 209h151l-196 -195l219 -339h-148z" />
    <glyph glyph-name="Lacute" unicode="&#x139;" horiz-adv-x="600" 
d="M129 913h154l-100 -128h-102zM70 744h138v-623h362v-121h-500v744z" />
    <glyph glyph-name="lacute" unicode="&#x13a;" horiz-adv-x="247" 
d="M115 913h154l-100 -128h-102zM60 744h128v-744h-128v744z" />
    <glyph glyph-name="Lcommaaccent" unicode="&#x13b;" horiz-adv-x="600" 
d="M388 -131q0 -62 -37.5 -91t-95.5 -33v49q29 5 46 18t17 37h-61v100h131v-80zM70 744h138v-623h362v-121h-500v744z" />
    <glyph glyph-name="lcommaaccent" unicode="&#x13c;" horiz-adv-x="247" 
d="M191 -131q0 -62 -37.5 -91t-95.5 -33v49q29 5 46 18t17 37h-61v100h131v-80zM60 744h128v-744h-128v744z" />
    <glyph glyph-name="Lcaron" unicode="&#x13d;" horiz-adv-x="600" 
d="M70 744h138v-623h362v-121h-500v744zM466 653q0 -65 -34 -94t-88 -32v47q28 4 40.5 18.5t13.5 40.5h-53v111h121v-91z" />
    <glyph glyph-name="lcaron" unicode="&#x13e;" horiz-adv-x="247" 
d="M350 671q0 -61 -31.5 -88t-85.5 -30v47q28 4 40.5 16.5t13.5 34.5h-53v93h116v-73zM60 744h128v-744h-128v744z" />
    <glyph glyph-name="Ldot" unicode="&#x13f;" horiz-adv-x="600" 
d="M70 744h138v-623h362v-121h-500v744zM383 424h129v-129h-129v129z" />
    <glyph glyph-name="ldot" unicode="&#x140;" horiz-adv-x="377" 
d="M60 744h128v-744h-128v744zM248 424h129v-129h-129v129z" />
    <glyph glyph-name="Lslash" unicode="&#x141;" horiz-adv-x="603" 
d="M5 302l68 36v406h138v-333l230 122v-101l-230 -122v-189h363v-121h-501v237l-68 -36v101z" />
    <glyph glyph-name="lslash" unicode="&#x142;" horiz-adv-x="293" 
d="M9 320l73 55v369h128v-272l82 62v-101l-82 -62v-371h-128v274l-73 -55v101z" />
    <glyph glyph-name="Nacute" unicode="&#x143;" horiz-adv-x="747" 
d="M372 913h154l-100 -128h-102zM70 744h142l247 -390q15 -25 31 -55t30 -56l32 -62h3q-2 34 -4 67q-2 29 -3 62t-1 61v373h131v-744h-142l-246 388q-16 25 -32 55.5t-30 56.5l-32 62h-2q1 -34 3 -67q2 -29 3 -62t1 -61v-372h-131v744z" />
    <glyph glyph-name="nacute" unicode="&#x144;" horiz-adv-x="589" 
d="M182 456h3q26 45 67.5 68.5t98.5 23.5q87 0 135.5 -49.5t48.5 -136.5v-362h-127v341q0 48 -26.5 75t-75.5 27q-27 0 -49 -9.5t-38 -27t-25 -41.5t-9 -52v-313h-127v534h124v-78zM299 772h150l-105 -154h-98z" />
    <glyph glyph-name="Ncommaaccent" unicode="&#x145;" horiz-adv-x="747" 
d="M439 -131q0 -62 -37.5 -91t-95.5 -33v49q29 5 46 18t17 37h-61v100h131v-80zM70 744h142l247 -390q15 -25 31 -55t30 -56l32 -62h3q-2 34 -4 67q-2 29 -3 62t-1 61v373h131v-744h-142l-246 388q-16 25 -32 55.5t-30 56.5l-32 62h-2q1 -34 3 -67q2 -29 3 -62t1 -61v-372
h-131v744z" />
    <glyph glyph-name="ncommaaccent" unicode="&#x146;" horiz-adv-x="589" 
d="M182 456h3q26 45 67.5 68.5t98.5 23.5q87 0 135.5 -49.5t48.5 -136.5v-362h-127v341q0 48 -26.5 75t-75.5 27q-27 0 -49 -9.5t-38 -27t-25 -41.5t-9 -52v-313h-127v534h124v-78zM365 -131q0 -62 -37.5 -91t-95.5 -33v49q29 5 46 18t17 37h-61v100h131v-80z" />
    <glyph glyph-name="Ncaron" unicode="&#x147;" horiz-adv-x="747" 
d="M446 785h-129l-104 123h117l50 -59h2l52 59h117zM70 744h142l247 -390q15 -25 31 -55t30 -56l32 -62h3q-2 34 -4 67q-2 29 -3 62t-1 61v373h131v-744h-142l-246 388q-16 25 -32 55.5t-30 56.5l-32 62h-2q1 -34 3 -67q2 -29 3 -62t1 -61v-372h-131v744z" />
    <glyph glyph-name="ncaron" unicode="&#x148;" horiz-adv-x="589" 
d="M182 456h3q26 45 67.5 68.5t98.5 23.5q87 0 135.5 -49.5t48.5 -136.5v-362h-127v341q0 48 -26.5 75t-75.5 27q-27 0 -49 -9.5t-38 -27t-25 -41.5t-9 -52v-313h-127v534h124v-78zM363 618h-129l-102 137h116l49 -77h2l51 77h116z" />
    <glyph glyph-name="napostrophe" unicode="&#x149;" horiz-adv-x="589" 
d="M182 456h3q26 45 67.5 68.5t98.5 23.5q87 0 135.5 -49.5t48.5 -136.5v-362h-127v341q0 48 -26.5 75t-75.5 27q-27 0 -49 -9.5t-38 -27t-25 -41.5t-9 -52v-313h-127v534h124v-78zM81 671q0 -61 -31.5 -88t-85.5 -30v47q28 4 40.5 16.5t13.5 34.5h-53v93h116v-73z" />
    <glyph glyph-name="Eng" unicode="&#x14a;" horiz-adv-x="747" 
d="M439 -72q87 0 101 68l-250 392q-16 25 -32.5 55.5t-30.5 56.5q-16 31 -31 62h-2q1 -34 3 -67q2 -29 3 -62t1 -61v-372h-131v744h142l247 -390q15 -25 31 -55t30 -56l32 -62h3q-2 34 -4 67q-2 29 -3 62t-1 61v373h131v-711q0 -46 -10.5 -82.5t-33.5 -65.5
q-27 -35 -69.5 -53t-108.5 -18q-21 0 -37.5 2t-30.5 5v111h5q8 -2 20 -3t26 -1z" />
    <glyph glyph-name="eng" unicode="&#x14b;" horiz-adv-x="589" 
d="M408 341q0 48 -26.5 75t-75.5 27q-27 0 -49 -9.5t-38 -27t-25 -41.5t-9 -52v-313h-127v534h124v-78h3q26 45 67.5 68.5t98.5 23.5q87 0 135.5 -49.5t48.5 -136.5v-390q0 -46 -10.5 -72.5t-27.5 -42.5q-20 -18 -46.5 -25.5t-58.5 -7.5q-19 0 -38.5 2t-33.5 5v93h5
q9 0 17 -0.5t16 0.5q25 2 37.5 13t12.5 40v364z" />
    <glyph glyph-name="Omacron" unicode="&#x14c;" horiz-adv-x="812" 
d="M256 886h299v-94h-299v94zM406 -17q-84 0 -152 29t-115.5 81t-73 123t-25.5 154q0 84 25.5 155t73 122.5t115.5 81t152 29.5t152 -29.5t115.5 -81t73 -122.5t25.5 -155q0 -83 -25.5 -154t-73 -123t-115.5 -81t-152 -29zM407 100q55 0 97 20.5t70 56.5t42 85.5t14 107.5
t-14 108t-42 87t-70 58t-97 21q-56 0 -98 -21t-70.5 -58t-43 -87t-14.5 -108t14.5 -107.5t43 -85.5t70.5 -56.5t98 -20.5z" />
    <glyph glyph-name="omacron" unicode="&#x14d;" horiz-adv-x="606" 
d="M155 730h294v-94h-294v94zM304 -16q-62 0 -112.5 22t-86 60t-55 89.5t-19.5 110.5q0 60 19.5 111.5t55 89.5t86 59.5t112.5 21.5t112 -21.5t85.5 -59.5t54.5 -89.5t19 -111.5q0 -59 -19 -110.5t-54.5 -89.5t-85.5 -60t-112 -22zM303 80q35 0 61.5 14t44.5 39t27.5 59
t9.5 74t-9.5 74.5t-27.5 60t-44.5 39.5t-61.5 14t-62 -14t-45 -39.5t-27 -60t-9 -74.5t9 -74t27 -59t45 -39t62 -14z" />
    <glyph glyph-name="Obreve" unicode="&#x14e;" horiz-adv-x="812" 
d="M407 779q-64 0 -106 37.5t-45 98.5h79q5 -23 22 -37.5t49 -14.5q31 0 48.5 15t22.5 37h77q-1 -29 -12 -53.5t-30 -43t-45.5 -29t-59.5 -10.5zM406 -17q-84 0 -152 29t-115.5 81t-73 123t-25.5 154q0 84 25.5 155t73 122.5t115.5 81t152 29.5t152 -29.5t115.5 -81
t73 -122.5t25.5 -155q0 -83 -25.5 -154t-73 -123t-115.5 -81t-152 -29zM407 100q55 0 97 20.5t70 56.5t42 85.5t14 107.5t-14 108t-42 87t-70 58t-97 21q-56 0 -98 -21t-70.5 -58t-43 -87t-14.5 -108t14.5 -107.5t43 -85.5t70.5 -56.5t98 -20.5z" />
    <glyph glyph-name="obreve" unicode="&#x14f;" horiz-adv-x="606" 
d="M304 -16q-62 0 -112.5 22t-86 60t-55 89.5t-19.5 110.5q0 60 19.5 111.5t55 89.5t86 59.5t112.5 21.5t112 -21.5t85.5 -59.5t54.5 -89.5t19 -111.5q0 -59 -19 -110.5t-54.5 -89.5t-85.5 -60t-112 -22zM303 80q35 0 61.5 14t44.5 39t27.5 59t9.5 74t-9.5 74.5t-27.5 60
t-44.5 39.5t-61.5 14t-62 -14t-45 -39.5t-27 -60t-9 -74.5t9 -74t27 -59t45 -39t62 -14zM304 613q-63 0 -106 38t-46 104h79q4 -28 22 -43.5t50 -15.5q31 0 49.5 16.5t22.5 42.5h77q-2 -63 -42 -102.5t-106 -39.5z" />
    <glyph glyph-name="Ohungarumlaut" unicode="&#x150;" horiz-adv-x="812" 
d="M406 -17q-84 0 -152 29t-115.5 81t-73 123t-25.5 154q0 84 25.5 155t73 122.5t115.5 81t152 29.5t152 -29.5t115.5 -81t73 -122.5t25.5 -155q0 -83 -25.5 -154t-73 -123t-115.5 -81t-152 -29zM407 100q55 0 97 20.5t70 56.5t42 85.5t14 107.5t-14 108t-42 87t-70 58
t-97 21q-56 0 -98 -21t-70.5 -58t-43 -87t-14.5 -108t14.5 -107.5t43 -85.5t70.5 -56.5t98 -20.5zM478 913h128l-75 -128h-86zM305 913h129l-75 -128h-88z" />
    <glyph glyph-name="ohungarumlaut" unicode="&#x151;" horiz-adv-x="606" 
d="M384 772h125l-82 -154h-84zM214 772h126l-83 -154h-85zM304 -16q-62 0 -112.5 22t-86 60t-55 89.5t-19.5 110.5q0 60 19.5 111.5t55 89.5t86 59.5t112.5 21.5t112 -21.5t85.5 -59.5t54.5 -89.5t19 -111.5q0 -59 -19 -110.5t-54.5 -89.5t-85.5 -60t-112 -22zM303 80
q35 0 61.5 14t44.5 39t27.5 59t9.5 74t-9.5 74.5t-27.5 60t-44.5 39.5t-61.5 14t-62 -14t-45 -39.5t-27 -60t-9 -74.5t9 -74t27 -59t45 -39t62 -14z" />
    <glyph glyph-name="OE" unicode="&#x152;" horiz-adv-x="1135" 
d="M388 -17q-77 0 -141 29t-110 81t-71.5 123t-25.5 154q0 84 25.5 155t72 122.5t110 81t140.5 29.5q63 0 109 -24t78 -66v76h503v-118h-376v-185h329v-111h-329v-206h388v-124h-515v70q-32 -42 -77.5 -64.5t-109.5 -22.5zM394 99q38 0 70 13t55.5 37.5t36.5 59t13 77.5v162
q0 45 -13 81t-36.5 61.5t-55.5 39.5t-70 14q-51 0 -90.5 -21t-67 -58t-41.5 -87t-14 -108t14 -107.5t41 -86t67 -57t91 -20.5z" />
    <glyph glyph-name="oe" unicode="&#x153;" horiz-adv-x="972" 
d="M696 -16q-69 0 -119.5 28.5t-81.5 78.5q-30 -49 -80 -78t-120 -29q-61 0 -109.5 22t-83 60t-53 89.5t-18.5 110.5q0 60 18.5 111.5t53 89.5t83 59.5t109.5 21.5q70 0 120.5 -29t80.5 -79q30 50 79 79t115 29q111 0 176 -74q39 -42 57.5 -103t18.5 -136h-387
q7 -69 43 -111.5t99 -42.5q45 0 71 18.5t40 51.5h123q-9 -36 -29 -66.5t-50 -53t-69 -35t-87 -12.5zM296 80q34 0 59.5 14t42.5 39t26 59t9 74t-9 74.5t-26 60t-42.5 39.5t-59.5 14q-35 0 -60.5 -14t-42 -39.5t-25 -60t-8.5 -74.5t8.5 -74t25 -59t42 -39t60.5 -14zM690 456
q-61 0 -93 -39t-40 -102h253q-4 66 -34.5 103.5t-85.5 37.5z" />
    <glyph glyph-name="Racute" unicode="&#x154;" horiz-adv-x="708" 
d="M70 744h351q52 0 96 -14.5t75.5 -41.5t49.5 -65.5t18 -87.5q0 -67 -32 -114t-105 -70v-3q59 -18 84.5 -55t31.5 -106q9 -82 13.5 -127t19.5 -53v-7h-140q-14 9 -17.5 52t-9.5 118q-6 66 -38.5 96t-99.5 30h-159v-296h-138v744zM208 402h180q66 0 99.5 30.5t33.5 82.5
q0 56 -30.5 86t-97.5 30h-185v-229zM338 913h154l-100 -128h-102z" />
    <glyph glyph-name="racute" unicode="&#x155;" horiz-adv-x="396" 
d="M181 438h3q51 104 153 104q23 0 34 -5v-114h-4q-16 4 -35 4q-63 1 -105 -40.5t-42 -118.5v-268h-127v534h123v-96zM222 772h150l-105 -154h-98z" />
    <glyph glyph-name="Rcommaaccent" unicode="&#x156;" horiz-adv-x="708" 
d="M70 744h351q52 0 96 -14.5t75.5 -41.5t49.5 -65.5t18 -87.5q0 -67 -32 -114t-105 -70v-3q59 -18 84.5 -55t31.5 -106q9 -82 13.5 -127t19.5 -53v-7h-140q-14 9 -17.5 52t-9.5 118q-6 66 -38.5 96t-99.5 30h-159v-296h-138v744zM208 402h180q66 0 99.5 30.5t33.5 82.5
q0 56 -30.5 86t-97.5 30h-185v-229zM425 -131q0 -62 -37.5 -91t-95.5 -33v49q29 5 46 18t17 37h-61v100h131v-80z" />
    <glyph glyph-name="rcommaaccent" unicode="&#x157;" horiz-adv-x="396" 
d="M181 438h3q51 104 153 104q23 0 34 -5v-114h-4q-16 4 -35 4q-63 1 -105 -40.5t-42 -118.5v-268h-127v534h123v-96zM187 -131q0 -62 -37.5 -91t-95.5 -33v49q29 5 46 18t17 37h-61v100h131v-80z" />
    <glyph glyph-name="Rcaron" unicode="&#x158;" horiz-adv-x="708" 
d="M70 744h351q52 0 96 -14.5t75.5 -41.5t49.5 -65.5t18 -87.5q0 -67 -32 -114t-105 -70v-3q59 -18 84.5 -55t31.5 -106q9 -82 13.5 -127t19.5 -53v-7h-140q-14 9 -17.5 52t-9.5 118q-6 66 -38.5 96t-99.5 30h-159v-296h-138v744zM208 402h180q66 0 99.5 30.5t33.5 82.5
q0 56 -30.5 86t-97.5 30h-185v-229zM412 785h-129l-104 123h117l50 -59h2l52 59h117z" />
    <glyph glyph-name="rcaron" unicode="&#x159;" horiz-adv-x="396" 
d="M181 438h3q51 104 153 104q23 0 34 -5v-114h-4q-16 4 -35 4q-63 1 -105 -40.5t-42 -118.5v-268h-127v534h123v-96zM290 618h-129l-102 137h116l49 -77h2l51 77h116z" />
    <glyph glyph-name="Sacute" unicode="&#x15a;" horiz-adv-x="682" 
d="M353 -17q-77 0 -136.5 18.5t-100.5 52t-63.5 80.5t-24.5 104h139q15 -144 187 -144q30 0 57 6.5t47.5 20t32 34t11.5 48.5q0 30 -13.5 49.5t-38.5 33t-60.5 23t-79.5 19.5q-52 12 -98.5 26t-81 38t-55 60.5t-20.5 92.5q0 53 20.5 92.5t57.5 66t87 40t110 13.5
q131 0 203.5 -58.5t83.5 -161.5h-135q-8 55 -48 84.5t-106 29.5q-63 0 -100.5 -24.5t-37.5 -69.5q0 -26 13 -43t37.5 -29t59 -21t77.5 -18q52 -11 99.5 -26t84.5 -40.5t59 -65.5t22 -100q0 -56 -22 -99t-60.5 -72t-91.5 -44.5t-115 -15.5zM324 913h154l-100 -128h-102z" />
    <glyph glyph-name="sacute" unicode="&#x15b;" horiz-adv-x="531" 
d="M260 772h150l-105 -154h-98zM272 -17q-115 0 -178.5 50t-69.5 131h122q8 -48 42 -69.5t85 -21.5q53 0 78 20.5t25 52.5q0 20 -10 32.5t-28 21t-43.5 14t-56.5 11.5q-38 7 -73 17t-62 27.5t-43.5 46t-16.5 73.5q0 38 15.5 67.5t43 50t66.5 31t86 10.5q107 0 161.5 -43.5
t64.5 -113.5h-121q-14 71 -106 71q-45 0 -67.5 -18t-22.5 -46q0 -18 10 -29t28 -18.5t43 -12.5l55 -11q38 -7 74 -16.5t64.5 -28t45.5 -49t17 -79.5q0 -42 -17 -74t-47.5 -53.5t-72.5 -32.5t-91 -11z" />
    <glyph glyph-name="Scircumflex" unicode="&#x15c;" horiz-adv-x="682" 
d="M353 -17q-77 0 -136.5 18.5t-100.5 52t-63.5 80.5t-24.5 104h139q15 -144 187 -144q30 0 57 6.5t47.5 20t32 34t11.5 48.5q0 30 -13.5 49.5t-38.5 33t-60.5 23t-79.5 19.5q-52 12 -98.5 26t-81 38t-55 60.5t-20.5 92.5q0 53 20.5 92.5t57.5 66t87 40t110 13.5
q131 0 203.5 -58.5t83.5 -161.5h-135q-8 55 -48 84.5t-106 29.5q-63 0 -100.5 -24.5t-37.5 -69.5q0 -26 13 -43t37.5 -29t59 -21t77.5 -18q52 -11 99.5 -26t84.5 -40.5t59 -65.5t22 -100q0 -56 -22 -99t-60.5 -72t-91.5 -44.5t-115 -15.5zM266 908h129l104 -123h-117l-50 59
h-2l-52 -59h-117z" />
    <glyph glyph-name="scircumflex" unicode="&#x15d;" horiz-adv-x="531" 
d="M195 757h129l102 -136h-116l-49 77h-2l-51 -77h-116zM272 -17q-115 0 -178.5 50t-69.5 131h122q8 -48 42 -69.5t85 -21.5q53 0 78 20.5t25 52.5q0 20 -10 32.5t-28 21t-43.5 14t-56.5 11.5q-38 7 -73 17t-62 27.5t-43.5 46t-16.5 73.5q0 38 15.5 67.5t43 50t66.5 31
t86 10.5q107 0 161.5 -43.5t64.5 -113.5h-121q-14 71 -106 71q-45 0 -67.5 -18t-22.5 -46q0 -18 10 -29t28 -18.5t43 -12.5l55 -11q38 -7 74 -16.5t64.5 -28t45.5 -49t17 -79.5q0 -42 -17 -74t-47.5 -53.5t-72.5 -32.5t-91 -11z" />
    <glyph glyph-name="Scedilla" unicode="&#x15e;" horiz-adv-x="682" 
d="M306 -209q-36 0 -64 8.5t-48 21.5l18 36q34 -16 72 -16q23 0 39 7t16 27q0 16 -10.5 23t-27.5 7q-12 0 -21 -2t-17 -5l-17 26l58 61q-65 6 -115.5 26.5t-85.5 53.5t-54 76.5t-21 96.5h139q15 -144 187 -144q30 0 57 6.5t47.5 20t32 34t11.5 48.5q0 30 -13.5 49.5
t-38.5 33t-60.5 23t-79.5 19.5q-52 12 -98.5 26t-81 38t-55 60.5t-20.5 92.5q0 53 20.5 92.5t57.5 66t87 40t110 13.5q131 0 203.5 -58.5t83.5 -161.5h-135q-8 55 -48 84.5t-106 29.5q-63 0 -100.5 -24.5t-37.5 -69.5q0 -26 13 -43t37.5 -29t59 -21t77.5 -18
q52 -11 99.5 -26t84.5 -40.5t59 -65.5t22 -100q0 -54 -21 -96.5t-58.5 -72t-89 -45.5t-111.5 -17l-43 -38v-2q19 3 38 0.5t34.5 -11t25.5 -23.5t10 -37q0 -38 -33.5 -59.5t-87.5 -21.5z" />
    <glyph glyph-name="scedilla" unicode="&#x15f;" horiz-adv-x="531" 
d="M232 -209q-36 0 -64 8.5t-48 21.5l18 36q34 -16 72 -16q23 0 39 7t16 27q0 16 -10.5 23t-27.5 7q-12 0 -21 -2t-17 -5l-17 26l57 61q-94 10 -147 57.5t-58 121.5h122q8 -48 42 -69.5t85 -21.5q53 0 78 20.5t25 52.5q0 20 -10 32.5t-28 21t-43.5 14t-56.5 11.5
q-38 7 -73 17t-62 27.5t-43.5 46t-16.5 73.5q0 38 15.5 67.5t43 50t66.5 31t86 10.5q107 0 161.5 -43.5t64.5 -113.5h-121q-14 71 -106 71q-45 0 -67.5 -18t-22.5 -46q0 -18 10 -29t28 -18.5t43 -12.5l55 -11q38 -7 74 -16.5t64.5 -28t45.5 -49t17 -79.5q0 -40 -15.5 -71
t-43.5 -52.5t-67 -33t-85 -13.5l-44 -39v-2q19 3 38 0.5t34.5 -11t25.5 -23.5t10 -37q0 -38 -33.5 -59.5t-87.5 -21.5z" />
    <glyph glyph-name="Scaron" unicode="&#x160;" horiz-adv-x="682" 
d="M353 -17q-77 0 -136.5 18.5t-100.5 52t-63.5 80.5t-24.5 104h139q15 -144 187 -144q30 0 57 6.5t47.5 20t32 34t11.5 48.5q0 30 -13.5 49.5t-38.5 33t-60.5 23t-79.5 19.5q-52 12 -98.5 26t-81 38t-55 60.5t-20.5 92.5q0 53 20.5 92.5t57.5 66t87 40t110 13.5
q131 0 203.5 -58.5t83.5 -161.5h-135q-8 55 -48 84.5t-106 29.5q-63 0 -100.5 -24.5t-37.5 -69.5q0 -26 13 -43t37.5 -29t59 -21t77.5 -18q52 -11 99.5 -26t84.5 -40.5t59 -65.5t22 -100q0 -56 -22 -99t-60.5 -72t-91.5 -44.5t-115 -15.5zM392 785h-129l-104 123h117l50 -59
h2l52 59h117z" />
    <glyph glyph-name="scaron" unicode="&#x161;" horiz-adv-x="531" 
d="M323 618h-129l-102 137h116l49 -77h2l51 77h116zM272 -17q-115 0 -178.5 50t-69.5 131h122q8 -48 42 -69.5t85 -21.5q53 0 78 20.5t25 52.5q0 20 -10 32.5t-28 21t-43.5 14t-56.5 11.5q-38 7 -73 17t-62 27.5t-43.5 46t-16.5 73.5q0 38 15.5 67.5t43 50t66.5 31t86 10.5
q107 0 161.5 -43.5t64.5 -113.5h-121q-14 71 -106 71q-45 0 -67.5 -18t-22.5 -46q0 -18 10 -29t28 -18.5t43 -12.5l55 -11q38 -7 74 -16.5t64.5 -28t45.5 -49t17 -79.5q0 -42 -17 -74t-47.5 -53.5t-72.5 -32.5t-91 -11z" />
    <glyph glyph-name="uni0162" unicode="&#x162;" horiz-adv-x="661" 
d="M29 744h604v-119h-233v-625h-139v625h-232v119zM397 -131q0 -62 -37.5 -91t-95.5 -33v49q29 5 46 18t17 37h-61v100h131v-80z" />
    <glyph glyph-name="uni0163" unicode="&#x163;" horiz-adv-x="371" 
d="M26 534h82v170h125v-170h107v-87h-107v-299q0 -29 15 -39.5t42 -10.5q10 0 21.5 1t19.5 3h6v-99q-16 -3 -37 -5.5t-47 -2.5q-32 0 -59 6.5t-46 21t-29.5 38.5t-10.5 59v327h-82v87zM279 -131q0 -62 -37.5 -91t-95.5 -33v49q29 5 46 18t17 37h-61v100h131v-80z" />
    <glyph glyph-name="Tcaron" unicode="&#x164;" horiz-adv-x="661" 
d="M29 744h604v-119h-233v-625h-139v625h-232v119zM395 785h-129l-104 123h117l50 -59h2l52 59h117z" />
    <glyph glyph-name="tcaron" unicode="&#x165;" horiz-adv-x="371" 
d="M26 534h82v170h125v-170h107v-87h-107v-299q0 -29 15 -39.5t42 -10.5q10 0 21.5 1t19.5 3h6v-99q-16 -3 -37 -5.5t-47 -2.5q-32 0 -59 6.5t-46 21t-29.5 38.5t-10.5 59v327h-82v87zM404 671q0 -61 -31.5 -88t-85.5 -30v47q28 4 40.5 16.5t13.5 34.5h-53v93h116v-73z" />
    <glyph glyph-name="Tbar" unicode="&#x166;" horiz-adv-x="661" 
d="M29 744h604v-119h-233v-196h156v-91h-156v-338h-139v338h-156v91h156v196h-232v119z" />
    <glyph glyph-name="tbar" unicode="&#x167;" horiz-adv-x="371" 
d="M26 534h82v170h125v-170h107v-87h-107v-88h107v-80h-107v-131q0 -29 15 -39.5t42 -10.5q10 0 21.5 1t19.5 3h6v-99q-16 -3 -37 -5.5t-47 -2.5q-32 0 -59 6.5t-46 21t-29.5 38.5t-10.5 59v159h-82v80h82v88h-82v87z" />
    <glyph glyph-name="Utilde" unicode="&#x168;" horiz-adv-x="715" 
d="M427 786q-21 0 -39.5 6t-34.5 13.5t-29 14t-24 6.5q-12 0 -21 -11t-11 -29h-75q1 62 28 93.5t69 31.5q22 0 39.5 -6t32 -13.5t27 -13.5t26.5 -6q15 0 22 10t9 27h76q-2 -57 -25.5 -90t-69.5 -33zM358 -13q-139 0 -218.5 65.5t-79.5 198.5v493h138v-491q0 -151 161 -151
q76 0 117 39t41 114v489h139v-493q0 -66 -21 -115.5t-59.5 -82.5t-93.5 -49.5t-124 -16.5z" />
    <glyph glyph-name="utilde" unicode="&#x169;" horiz-adv-x="583" 
d="M402 0v76h-2q-29 -44 -66.5 -67t-94.5 -23q-88 0 -136.5 50.5t-48.5 137.5v360h127v-342q0 -48 26 -74t74 -26q54 0 86 36.5t32 92.5v313h126v-534h-123zM358 621q-21 0 -39.5 6t-34.5 13.5t-29 14t-24 6.5q-13 0 -22 -10.5t-11 -29.5h-74q1 63 28 94t69 31
q22 0 39.5 -6.5t32.5 -14t27.5 -13.5t26.5 -6q15 0 22 10.5t9 27.5h75q-2 -57 -25.5 -90t-69.5 -33z" />
    <glyph glyph-name="Umacron" unicode="&#x16a;" horiz-adv-x="715" 
d="M208 886h299v-94h-299v94zM358 -13q-139 0 -218.5 65.5t-79.5 198.5v493h138v-491q0 -151 161 -151q76 0 117 39t41 114v489h139v-493q0 -66 -21 -115.5t-59.5 -82.5t-93.5 -49.5t-124 -16.5z" />
    <glyph glyph-name="umacron" unicode="&#x16b;" horiz-adv-x="583" 
d="M402 0v76h-2q-29 -44 -66.5 -67t-94.5 -23q-88 0 -136.5 50.5t-48.5 137.5v360h127v-342q0 -48 26 -74t74 -26q54 0 86 36.5t32 92.5v313h126v-534h-123zM141 730h294v-94h-294v94z" />
    <glyph glyph-name="Ubreve" unicode="&#x16c;" horiz-adv-x="715" 
d="M359 779q-64 0 -106 37.5t-45 98.5h79q5 -23 22 -37.5t49 -14.5q31 0 48.5 15t22.5 37h77q-1 -29 -12 -53.5t-30 -43t-45.5 -29t-59.5 -10.5zM358 -13q-139 0 -218.5 65.5t-79.5 198.5v493h138v-491q0 -151 161 -151q76 0 117 39t41 114v489h139v-493q0 -66 -21 -115.5
t-59.5 -82.5t-93.5 -49.5t-124 -16.5z" />
    <glyph glyph-name="ubreve" unicode="&#x16d;" horiz-adv-x="583" 
d="M402 0v76h-2q-29 -44 -66.5 -67t-94.5 -23q-88 0 -136.5 50.5t-48.5 137.5v360h127v-342q0 -48 26 -74t74 -26q54 0 86 36.5t32 92.5v313h126v-534h-123zM290 613q-63 0 -106 38t-46 104h79q4 -28 22 -43.5t50 -15.5q31 0 49.5 16.5t22.5 42.5h77q-2 -63 -42 -102.5
t-106 -39.5z" />
    <glyph glyph-name="Uring" unicode="&#x16e;" horiz-adv-x="715" 
d="M358 -13q-139 0 -218.5 65.5t-79.5 198.5v493h138v-491q0 -151 161 -151q76 0 117 39t41 114v489h139v-493q0 -66 -21 -115.5t-59.5 -82.5t-93.5 -49.5t-124 -16.5zM358 743q-23 0 -43 8t-35 22.5t-23.5 33.5t-8.5 42q0 22 8.5 41t23.5 33t35 22.5t43 8.5q22 0 41.5 -8.5
t34.5 -22.5t23.5 -33t8.5 -41q0 -23 -8.5 -42t-23.5 -33.5t-34.5 -22.5t-41.5 -8zM358 793q23 0 38 16t15 40q0 23 -15 39.5t-38 16.5q-25 0 -40 -16.5t-15 -39.5q0 -24 15 -40t40 -16z" />
    <glyph glyph-name="uring" unicode="&#x16f;" horiz-adv-x="583" 
d="M402 0v76h-2q-29 -44 -66.5 -67t-94.5 -23q-88 0 -136.5 50.5t-48.5 137.5v360h127v-342q0 -48 26 -74t74 -26q54 0 86 36.5t32 92.5v313h126v-534h-123zM290 597q-23 0 -43 8t-35 22.5t-23.5 33.5t-8.5 42q0 22 8.5 41t23.5 33.5t35 23t43 8.5q22 0 41.5 -8.5t34.5 -23
t23.5 -33.5t8.5 -41q0 -23 -8.5 -42t-23.5 -33.5t-34.5 -22.5t-41.5 -8zM290 647q23 0 38 16t15 40t-15 40.5t-38 16.5q-25 0 -40 -16.5t-15 -40.5t15 -40t40 -16z" />
    <glyph glyph-name="Uhungarumlaut" unicode="&#x170;" horiz-adv-x="715" 
d="M358 -13q-139 0 -218.5 65.5t-79.5 198.5v493h138v-491q0 -151 161 -151q76 0 117 39t41 114v489h139v-493q0 -66 -21 -115.5t-59.5 -82.5t-93.5 -49.5t-124 -16.5zM430 913h128l-75 -128h-86zM257 913h129l-75 -128h-88z" />
    <glyph glyph-name="uhungarumlaut" unicode="&#x171;" horiz-adv-x="583" 
d="M402 0v76h-2q-29 -44 -66.5 -67t-94.5 -23q-88 0 -136.5 50.5t-48.5 137.5v360h127v-342q0 -48 26 -74t74 -26q54 0 86 36.5t32 92.5v313h126v-534h-123zM200 772h126l-83 -154h-85zM370 772h125l-82 -154h-84z" />
    <glyph glyph-name="Uogonek" unicode="&#x172;" horiz-adv-x="715" 
d="M402 -187q-60 0 -88.5 23.5t-28.5 62.5q0 31 17 53t40 36q-132 4 -207 69t-75 194v493h138v-491q0 -151 161 -151q76 0 117 39t41 114v489h139v-493q0 -97 -43 -157.5t-121 -86.5q-19 -7 -36.5 -15.5t-31.5 -19t-22.5 -23.5t-8.5 -29q0 -31 37 -31q20 0 35 5h2v-72
q-10 -4 -25.5 -6.5t-39.5 -2.5z" />
    <glyph glyph-name="uogonek" unicode="&#x173;" horiz-adv-x="583" 
d="M468 -187q-57 0 -86 23.5t-29 62.5q0 38 24 62.5t51 38.5h-26v76h-2q-29 -44 -66.5 -67t-94.5 -23q-88 0 -136.5 50.5t-48.5 137.5v360h127v-342q0 -48 26 -74t74 -26q54 0 86 36.5t32 92.5v313h126v-533q-31 -17 -48.5 -39t-17.5 -42q0 -31 38 -31q19 0 34 5h3v-72
q-10 -4 -25.5 -6.5t-40.5 -2.5z" />
    <glyph glyph-name="Wcircumflex" unicode="&#x174;" horiz-adv-x="983" 
d="M13 744h142l88 -360q8 -35 15.5 -77t12.5 -79q6 -43 11 -87h2q7 45 15 90q7 38 14.5 80.5t15.5 76.5l91 356h136l90 -355q8 -34 15.5 -77t13.5 -81l14 -90h2q6 44 13 88q6 38 13.5 79.5t16.5 76.5l88 359h142l-206 -744h-135l-95 389q-8 29 -15 67.5t-12 73.5
q-6 40 -12 82h-2q-6 -42 -12 -82q-5 -35 -12 -73.5t-14 -67.5l-100 -389h-138zM422 908h129l104 -123h-117l-50 59h-2l-52 -59h-117z" />
    <glyph glyph-name="wcircumflex" unicode="&#x175;" horiz-adv-x="803" 
d="M335 757h129l102 -136h-116l-49 77h-2l-51 -77h-116zM8 534h132l69 -249q6 -23 12 -51.5t11 -52.5q5 -29 10 -57h2q5 28 11 56q5 24 11 52.5t13 52.5l66 249h112l68 -249q6 -23 12 -51t11 -53q5 -29 11 -58h2q5 29 10 57q5 24 10.5 52t13.5 53l71 249h128l-170 -534h-122
l-67 254q-5 21 -11 48t-11 51q-6 28 -11 58h-2q-6 -30 -12 -58q-5 -24 -11 -51t-11 -48l-69 -254h-122z" />
    <glyph glyph-name="Ycircumflex" unicode="&#x176;" horiz-adv-x="692" 
d="M275 294l-261 450h153l105 -188q12 -23 25 -50.5t24 -51.5q12 -28 25 -57h2q12 29 25 57q11 24 24 51.5t26 50.5l106 188h147l-262 -452v-292h-139v294zM280 908h129l104 -123h-117l-50 59h-2l-52 -59h-117z" />
    <glyph glyph-name="ycircumflex" unicode="&#x177;" horiz-adv-x="539" 
d="M150 -182q-6 0 -20 0.5t-29 1.5t-28 2t-16 2v103h7q2 -1 8.5 -2t15 -1.5t16.5 -1t13 -0.5q32 0 51 13.5t27 45.5q0 4 0.5 14t0.5 23t-1.5 27t-5.5 25l-184 464h135l88 -248q8 -25 16.5 -54t14.5 -54l14 -58h2q7 30 15 59q7 25 15 53.5t16 53.5l85 248h128l-207 -564
q-17 -44 -34 -73.5t-38 -47t-46.5 -24.5t-58.5 -7zM207 757h129l102 -136h-116l-49 77h-2l-51 -77h-116z" />
    <glyph glyph-name="Ydieresis" unicode="&#x178;" horiz-adv-x="692" 
d="M275 294l-261 450h153l105 -188q12 -23 25 -50.5t24 -51.5q12 -28 25 -57h2q12 29 25 57q11 24 24 51.5t26 50.5l106 188h147l-262 -452v-292h-139v294zM171 907h125v-122h-125v122zM396 907h125v-122h-125v122z" />
    <glyph glyph-name="Zacute" unicode="&#x179;" horiz-adv-x="679" 
d="M37 118l316 394q14 18 33 38.5t36 37.5q19 20 39 40v3l-52 -2q-23 -1 -48.5 -1.5t-45.5 -0.5h-251v117h557v-109l-308 -389q-17 -20 -37 -42.5t-38 -41.5q-21 -23 -43 -44v-3q28 1 55 2q23 1 49.5 2t48.5 1h288v-120h-599v118zM331 913h154l-100 -128h-102z" />
    <glyph glyph-name="zacute" unicode="&#x17a;" horiz-adv-x="526" 
d="M272 772h150l-105 -154h-98zM40 96l213 261q10 11 23.5 25t25.5 26q14 14 28 27v3q-20 -2 -39 -3q-17 -2 -35.5 -2.5t-33.5 -0.5h-162v102h419v-87l-212 -260q-11 -13 -26 -27.5t-28 -27.5q-16 -15 -31 -30v-3q20 1 41 2q17 1 37.5 2t37.5 1h194v-104h-452v96z" />
    <glyph glyph-name="Zdotaccent" unicode="&#x17b;" horiz-adv-x="679" 
d="M276 907h130v-122h-130v122zM37 118l316 394q14 18 33 38.5t36 37.5q19 20 39 40v3l-52 -2q-23 -1 -48.5 -1.5t-45.5 -0.5h-251v117h557v-109l-308 -389q-17 -20 -37 -42.5t-38 -41.5q-21 -23 -43 -44v-3q28 1 55 2q23 1 49.5 2t48.5 1h288v-120h-599v118z" />
    <glyph glyph-name="zdotaccent" unicode="&#x17c;" horiz-adv-x="526" 
d="M40 96l213 261q10 11 23.5 25t25.5 26q14 14 28 27v3q-20 -2 -39 -3q-17 -2 -35.5 -2.5t-33.5 -0.5h-162v102h419v-87l-212 -260q-11 -13 -26 -27.5t-28 -27.5q-16 -15 -31 -30v-3q20 1 41 2q17 1 37.5 2t37.5 1h194v-104h-452v96zM207 744h130v-123h-130v123z" />
    <glyph glyph-name="Zcaron" unicode="&#x17d;" horiz-adv-x="679" 
d="M405 785h-129l-104 123h117l50 -59h2l52 59h117zM37 118l316 394q14 18 33 38.5t36 37.5q19 20 39 40v3l-52 -2q-23 -1 -48.5 -1.5t-45.5 -0.5h-251v117h557v-109l-308 -389q-17 -20 -37 -42.5t-38 -41.5q-21 -23 -43 -44v-3q28 1 55 2q23 1 49.5 2t48.5 1h288v-120h-599
v118z" />
    <glyph glyph-name="zcaron" unicode="&#x17e;" horiz-adv-x="526" 
d="M336 618h-129l-102 137h116l49 -77h2l51 77h116zM40 96l213 261q10 11 23.5 25t25.5 26q14 14 28 27v3q-20 -2 -39 -3q-17 -2 -35.5 -2.5t-33.5 -0.5h-162v102h419v-87l-212 -260q-11 -13 -26 -27.5t-28 -27.5q-16 -15 -31 -30v-3q20 1 41 2q17 1 37.5 2t37.5 1h194v-104
h-452v96z" />
    <glyph glyph-name="florin" unicode="&#x192;" horiz-adv-x="433" 
d="M38 428h105l23 156q5 34 16 60t31 44q32 29 83 35.5t113 -1.5v-95q-28 2 -48.5 1t-34.5 -7t-22 -18.5t-11 -33.5l-20 -141h114v-87h-127l-51 -363q-6 -35 -16.5 -61.5t-29.5 -43.5q-29 -26 -72.5 -31t-95.5 2v90q18 -1 32.5 0t25 6.5t17.5 17t10 31.5l51 352h-93v87z" />
    <glyph glyph-name="AEacute" unicode="&#x1fc;" horiz-adv-x="1029" 
d="M596 913h154l-100 -128h-102zM972 626h-372v-185h326v-111h-326v-206h384v-124h-524v179h-244l-61 -179h-138l261 744h694v-118zM251 281h209v345h-92z" />
    <glyph glyph-name="aeacute" unicode="&#x1fd;" horiz-adv-x="926" 
d="M234 -14q-92 0 -145 40.5t-53 118.5q0 45 16.5 74.5t45.5 47.5t69 27.5t88 15.5q66 8 99 22.5t33 49.5t-24 56.5t-72 21.5q-54 0 -80.5 -23t-29.5 -63h-119q1 34 15.5 65.5t43 55.5t70.5 38.5t99 14.5q65 0 110.5 -18.5t69.5 -57.5q30 35 73 55.5t100 20.5
q58 0 101.5 -19t76.5 -55q40 -42 57.5 -103.5t16.5 -135.5h-385q6 -69 40.5 -111.5t102.5 -42.5q43 0 70.5 19t39.5 51h124q-18 -74 -78.5 -120.5t-156.5 -46.5q-76 0 -127 30t-80 81q-40 -58 -90 -83.5t-121 -25.5zM254 74q33 0 58.5 10.5t42.5 27t26 38t9 44.5v78
q-19 -11 -47 -19.5t-58 -14.5q-58 -11 -90 -28.5t-32 -61.5q0 -21 7.5 -35.5t20 -23t29 -12t34.5 -3.5zM642 456q-60 0 -91.5 -39t-39.5 -102h253q-3 66 -35.5 103.5t-86.5 37.5zM476 772h150l-105 -154h-98z" />
    <glyph glyph-name="Oslashacute" unicode="&#x1fe;" horiz-adv-x="812" 
d="M26 4l97 107q-41 51 -62 116.5t-21 142.5q0 84 25.5 155t73 122.5t115.5 81t152 29.5q71 0 130 -21t105 -59l88 97l52 -45l-92 -101q40 -51 61.5 -116.5t21.5 -142.5q0 -83 -25.5 -154t-73 -123t-115.5 -81t-152 -29q-72 0 -130.5 20.5t-104.5 58.5l-94 -104zM181 370
q0 -94 34 -159l342 375q-27 28 -64.5 43t-85.5 15q-56 0 -98 -21t-70.5 -58t-43 -87t-14.5 -108zM407 100q55 0 97 20.5t70 56.5t42 85.5t14 107.5q0 91 -33 159l-341 -374q28 -26 65.5 -40.5t85.5 -14.5zM394 913h154l-100 -128h-102z" />
    <glyph glyph-name="oslashacute" unicode="&#x1ff;" horiz-adv-x="606" 
d="M19 -6l76 83q-31 38 -47.5 86t-16.5 103q0 60 19.5 111.5t55 89.5t86 59.5t112.5 21.5q51 0 93.5 -15t75.5 -41l70 77l43 -38l-72 -79q29 -37 45 -84.5t16 -101.5q0 -59 -19 -110.5t-54.5 -89.5t-85.5 -60t-112 -22q-50 0 -92 14t-76 39l-74 -81zM158 266q0 -57 17 -100
l226 248q-36 41 -98 41q-35 0 -62 -14.5t-45.5 -39.5t-28 -60t-9.5 -75zM303 80q35 0 62 14t45 39t27.5 59t9.5 74q0 54 -15 96l-224 -246q36 -36 95 -36zM303 772h150l-105 -154h-98z" />
    <glyph glyph-name="Scommaaccent" unicode="&#x218;" horiz-adv-x="682" 
d="M401 -131q0 -62 -37.5 -91t-95.5 -33v49q29 5 46 18t17 37h-61v100h131v-80zM353 -17q-77 0 -136.5 18.5t-100.5 52t-63.5 80.5t-24.5 104h139q15 -144 187 -144q30 0 57 6.5t47.5 20t32 34t11.5 48.5q0 30 -13.5 49.5t-38.5 33t-60.5 23t-79.5 19.5q-52 12 -98.5 26
t-81 38t-55 60.5t-20.5 92.5q0 53 20.5 92.5t57.5 66t87 40t110 13.5q131 0 203.5 -58.5t83.5 -161.5h-135q-8 55 -48 84.5t-106 29.5q-63 0 -100.5 -24.5t-37.5 -69.5q0 -26 13 -43t37.5 -29t59 -21t77.5 -18q52 -11 99.5 -26t84.5 -40.5t59 -65.5t22 -100q0 -56 -22 -99
t-60.5 -72t-91.5 -44.5t-115 -15.5z" />
    <glyph glyph-name="scommaaccent" unicode="&#x219;" horiz-adv-x="531" 
d="M327 -131q0 -62 -37.5 -91t-95.5 -33v49q29 5 46 18t17 37h-61v100h131v-80zM272 -17q-115 0 -178.5 50t-69.5 131h122q8 -48 42 -69.5t85 -21.5q53 0 78 20.5t25 52.5q0 20 -10 32.5t-28 21t-43.5 14t-56.5 11.5q-38 7 -73 17t-62 27.5t-43.5 46t-16.5 73.5
q0 38 15.5 67.5t43 50t66.5 31t86 10.5q107 0 161.5 -43.5t64.5 -113.5h-121q-14 71 -106 71q-45 0 -67.5 -18t-22.5 -46q0 -18 10 -29t28 -18.5t43 -12.5l55 -11q38 -7 74 -16.5t64.5 -28t45.5 -49t17 -79.5q0 -42 -17 -74t-47.5 -53.5t-72.5 -32.5t-91 -11z" />
    <glyph glyph-name="uni021A" unicode="&#x21a;" horiz-adv-x="661" 
d="M29 744h604v-119h-233v-625h-139v625h-232v119zM397 -131q0 -62 -37.5 -91t-95.5 -33v49q29 5 46 18t17 37h-61v100h131v-80z" />
    <glyph glyph-name="uni021B" unicode="&#x21b;" horiz-adv-x="371" 
d="M26 534h82v170h125v-170h107v-87h-107v-299q0 -29 15 -39.5t42 -10.5q10 0 21.5 1t19.5 3h6v-99q-16 -3 -37 -5.5t-47 -2.5q-32 0 -59 6.5t-46 21t-29.5 38.5t-10.5 59v327h-82v87zM279 -131q0 -62 -37.5 -91t-95.5 -33v49q29 5 46 18t17 37h-61v100h131v-80z" />
    <glyph glyph-name="uni0237" unicode="&#x237;" horiz-adv-x="243" 
d="M42 -176q-19 0 -38.5 2t-33.5 5v93h5q9 0 17 -0.5t16 0.5q25 2 37.5 13t12.5 40v557h127v-562q0 -46 -10.5 -72.5t-27.5 -42.5q-20 -18 -46.5 -25.5t-58.5 -7.5z" />
    <glyph glyph-name="circumflex" unicode="&#x2c6;" 
d="M186 757h129l102 -136h-116l-49 77h-2l-51 -77h-116z" />
    <glyph glyph-name="caron" unicode="&#x2c7;" 
d="M314 618h-129l-102 137h116l49 -77h2l51 77h116z" />
    <glyph glyph-name="uni02C9" unicode="&#x2c9;" 
d="M104 730h294v-94h-294v94z" />
    <glyph glyph-name="breve" unicode="&#x2d8;" 
d="M271 613q-63 0 -106 38t-46 104h79q4 -28 22 -43.5t50 -15.5q31 0 49.5 16.5t22.5 42.5h77q-2 -63 -42 -102.5t-106 -39.5z" />
    <glyph glyph-name="dotaccent" unicode="&#x2d9;" 
d="M185 744h130v-123h-130v123z" />
    <glyph glyph-name="ring" unicode="&#x2da;" 
d="M251 597q-23 0 -43 8t-35 22.5t-23.5 33.5t-8.5 42q0 22 8.5 41t23.5 33.5t35 23t43 8.5q22 0 41.5 -8.5t34.5 -23t23.5 -33.5t8.5 -41q0 -23 -8.5 -42t-23.5 -33.5t-34.5 -22.5t-41.5 -8zM251 647q23 0 38 16t15 40t-15 40.5t-38 16.5q-25 0 -40 -16.5t-15 -40.5t15 -40
t40 -16z" />
    <glyph glyph-name="ogonek" unicode="&#x2db;" 
d="M232 -187q-59 0 -88 23.5t-29 62.5q0 19 7.5 35t19 28.5t25.5 22t28 15.5h84q-24 -19 -40 -40t-16 -40q0 -31 38 -31q19 0 34 5h3v-72q-10 -4 -25.5 -6.5t-40.5 -2.5z" />
    <glyph glyph-name="tilde" unicode="&#x2dc;" 
d="M321 621q-21 0 -39.5 6t-34.5 13.5t-29 14t-24 6.5q-13 0 -22 -10.5t-11 -29.5h-74q1 63 28 94t69 31q22 0 39.5 -6.5t32.5 -14t27.5 -13.5t26.5 -6q15 0 22 10.5t9 27.5h75q-2 -57 -25.5 -90t-69.5 -33z" />
    <glyph glyph-name="hungarumlaut" unicode="&#x2dd;" 
d="M322 772h125l-82 -154h-84zM152 772h126l-83 -154h-85z" />
    <glyph glyph-name="uni0394" unicode="&#x394;" horiz-adv-x="716" 
d="M28 101l251 643h157l253 -643v-101h-661v101zM168 109h373l-135 354q-13 33 -22 63.5t-15 54.5q-7 28 -13 53h-2q-5 -25 -13 -53q-7 -24 -16.5 -54.5t-21.5 -63.5z" />
    <glyph glyph-name="uni03A9" unicode="&#x3a9;" horiz-adv-x="775" 
d="M43 109h125v2q-131 84 -131 280q0 82 25.5 149.5t72 116t111 75.5t142.5 27t142.5 -27t111 -75.5t72 -116t25.5 -149.5q0 -99 -34 -168.5t-99 -111.5v-2h126v-109h-306v104q45 7 77.5 32t53.5 62.5t31 85.5t10 102q0 59 -14.5 107t-41.5 81.5t-66 51.5t-88 18
q-50 0 -89 -18t-66 -51.5t-41.5 -81.5t-14.5 -107q0 -54 10 -102t31 -85.5t53.5 -62.5t77.5 -32v-104h-306v109z" />
    <glyph glyph-name="uni03BC" unicode="&#x3bc;" horiz-adv-x="587" 
d="M58 534h127v-342q0 -48 26 -74t74 -26q54 0 86 36.5t32 92.5v313h126v-534h-123v76h-2q-24 -38 -60 -62t-89 -24q-49 0 -71 24h-2q0 -14 1 -30q1 -14 1.5 -32t0.5 -38v-93h-127v713z" />
    <glyph glyph-name="pi" unicode="&#x3c0;" horiz-adv-x="675" 
d="M25 534h617v-87h-91v-306q0 -26 11 -35.5t34 -9.5q10 0 18.5 1.5t15.5 3.5h4v-98q-14 -4 -33 -6.5t-41 -2.5q-30 0 -54.5 6.5t-42.5 21t-28 38.5t-10 59v328h-190v-447h-127v447h-83v87z" />
    <glyph glyph-name="Wgrave" unicode="&#x1e80;" horiz-adv-x="983" 
d="M336 913h154l47 -128h-101zM13 744h142l88 -360q8 -35 15.5 -77t12.5 -79q6 -43 11 -87h2q7 45 15 90q7 38 14.5 80.5t15.5 76.5l91 356h136l90 -355q8 -34 15.5 -77t13.5 -81l14 -90h2q6 44 13 88q6 38 13.5 79.5t16.5 76.5l88 359h142l-206 -744h-135l-95 389
q-8 29 -15 67.5t-12 73.5q-6 40 -12 82h-2q-6 -42 -12 -82q-5 -35 -12 -73.5t-14 -67.5l-100 -389h-138z" />
    <glyph glyph-name="wgrave" unicode="&#x1e81;" horiz-adv-x="803" 
d="M8 534h132l69 -249q6 -23 12 -51.5t11 -52.5q5 -29 10 -57h2q5 28 11 56q5 24 11 52.5t13 52.5l66 249h112l68 -249q6 -23 12 -51t11 -53q5 -29 11 -58h2q5 29 10 57q5 24 10.5 52t13.5 53l71 249h128l-170 -534h-122l-67 254q-5 21 -11 48t-11 51q-6 28 -11 58h-2
q-6 -30 -12 -58q-5 -24 -11 -51t-11 -48l-69 -254h-122zM252 772h151l53 -154h-98z" />
    <glyph glyph-name="Wacute" unicode="&#x1e82;" horiz-adv-x="983" 
d="M479 913h154l-100 -128h-102zM13 744h142l88 -360q8 -35 15.5 -77t12.5 -79q6 -43 11 -87h2q7 45 15 90q7 38 14.5 80.5t15.5 76.5l91 356h136l90 -355q8 -34 15.5 -77t13.5 -81l14 -90h2q6 44 13 88q6 38 13.5 79.5t16.5 76.5l88 359h142l-206 -744h-135l-95 389
q-8 29 -15 67.5t-12 73.5q-6 40 -12 82h-2q-6 -42 -12 -82q-5 -35 -12 -73.5t-14 -67.5l-100 -389h-138z" />
    <glyph glyph-name="wacute" unicode="&#x1e83;" horiz-adv-x="803" 
d="M401 772h150l-105 -154h-98zM8 534h132l69 -249q6 -23 12 -51.5t11 -52.5q5 -29 10 -57h2q5 28 11 56q5 24 11 52.5t13 52.5l66 249h112l68 -249q6 -23 12 -51t11 -53q5 -29 11 -58h2q5 29 10 57q5 24 10.5 52t13.5 53l71 249h128l-170 -534h-122l-67 254q-5 21 -11 48
t-11 51q-6 28 -11 58h-2q-6 -30 -12 -58q-5 -24 -11 -51t-11 -48l-69 -254h-122z" />
    <glyph glyph-name="Wdieresis" unicode="&#x1e84;" horiz-adv-x="983" 
d="M538 907h125v-122h-125v122zM313 907h125v-122h-125v122zM13 744h142l88 -360q8 -35 15.5 -77t12.5 -79q6 -43 11 -87h2q7 45 15 90q7 38 14.5 80.5t15.5 76.5l91 356h136l90 -355q8 -34 15.5 -77t13.5 -81l14 -90h2q6 44 13 88q6 38 13.5 79.5t16.5 76.5l88 359h142
l-206 -744h-135l-95 389q-8 29 -15 67.5t-12 73.5q-6 40 -12 82h-2q-6 -42 -12 -82q-5 -35 -12 -73.5t-14 -67.5l-100 -389h-138z" />
    <glyph glyph-name="wdieresis" unicode="&#x1e85;" horiz-adv-x="803" 
d="M451 744h122v-123h-122v123zM229 744h122v-123h-122v123zM8 534h132l69 -249q6 -23 12 -51.5t11 -52.5q5 -29 10 -57h2q5 28 11 56q5 24 11 52.5t13 52.5l66 249h112l68 -249q6 -23 12 -51t11 -53q5 -29 11 -58h2q5 29 10 57q5 24 10.5 52t13.5 53l71 249h128l-170 -534
h-122l-67 254q-5 21 -11 48t-11 51q-6 28 -11 58h-2q-6 -30 -12 -58q-5 -24 -11 -51t-11 -48l-69 -254h-122z" />
    <glyph glyph-name="Ygrave" unicode="&#x1ef2;" horiz-adv-x="692" 
d="M275 294l-261 450h153l105 -188q12 -23 25 -50.5t24 -51.5q12 -28 25 -57h2q12 29 25 57q11 24 24 51.5t26 50.5l106 188h147l-262 -452v-292h-139v294zM194 913h154l47 -128h-101z" />
    <glyph glyph-name="ygrave" unicode="&#x1ef3;" horiz-adv-x="539" 
d="M150 -182q-6 0 -20 0.5t-29 1.5t-28 2t-16 2v103h7q2 -1 8.5 -2t15 -1.5t16.5 -1t13 -0.5q32 0 51 13.5t27 45.5q0 4 0.5 14t0.5 23t-1.5 27t-5.5 25l-184 464h135l88 -248q8 -25 16.5 -54t14.5 -54l14 -58h2q7 30 15 59q7 25 15 53.5t16 53.5l85 248h128l-207 -564
q-17 -44 -34 -73.5t-38 -47t-46.5 -24.5t-58.5 -7zM125 772h151l53 -154h-98z" />
    <glyph glyph-name="uni2009" unicode="&#x2009;" horiz-adv-x="110" 
 />
    <glyph glyph-name="endash" unicode="&#x2013;" 
d="M0 319h500v-109h-500v109z" />
    <glyph glyph-name="emdash" unicode="&#x2014;" horiz-adv-x="1000" 
d="M200 319h600v-109h-600v109z" />
    <glyph glyph-name="quoteleft" unicode="&#x2018;" horiz-adv-x="216" 
d="M46 592q0 39 10.5 67t28 46.5t40.5 28.5t48 13v-55q-24 -7 -42 -28.5t-18 -60.5v-7h58v-128h-125v124z" />
    <glyph glyph-name="quoteright" unicode="&#x2019;" horiz-adv-x="216" 
d="M171 620q0 -39 -10.5 -67t-28 -47t-40.5 -28.5t-48 -12.5v54q24 8 41.5 29t17.5 61v7h-57v128h125v-124z" />
    <glyph glyph-name="quotesinglbase" unicode="&#x201a;" horiz-adv-x="216" 
d="M171 4q0 -39 -10.5 -67t-28 -46.5t-40.5 -28.5t-48 -13v54q24 8 41.5 29t17.5 61v7h-57v128h125v-124z" />
    <glyph glyph-name="quotedblleft" unicode="&#x201c;" horiz-adv-x="408" 
d="M238 592q0 39 10.5 67t28 46.5t40 28.5t47.5 13v-55q-24 -7 -41.5 -28.5t-17.5 -60.5v-7h57v-128h-124v124zM46 592q0 39 10.5 67t28 46.5t40.5 28.5t48 13v-55q-24 -7 -42 -28.5t-18 -60.5v-7h58v-128h-125v124z" />
    <glyph glyph-name="quotedblright" unicode="&#x201d;" horiz-adv-x="408" 
d="M171 620q0 -39 -10.5 -67t-28 -47t-40.5 -28.5t-48 -12.5v54q24 8 41.5 29t17.5 61v7h-57v128h125v-124zM362 620q0 -39 -10.5 -67t-28 -47t-40.5 -28.5t-48 -12.5v54q24 8 42 29t18 61v7h-57v128h124v-124z" />
    <glyph glyph-name="quotedblbase" unicode="&#x201e;" horiz-adv-x="408" 
d="M171 4q0 -39 -10.5 -67t-28 -46.5t-40.5 -28.5t-48 -13v54q24 8 41.5 29t17.5 61v7h-57v128h125v-124zM362 4q0 -39 -10.5 -67t-28 -46.5t-40.5 -28.5t-48 -13v54q24 8 42 29t18 61v7h-57v128h124v-124z" />
    <glyph glyph-name="dagger" unicode="&#x2020;" horiz-adv-x="611" 
d="M44 542h194v202h133v-202h195v-107h-195v-564h-133v564h-194v107z" />
    <glyph glyph-name="daggerdbl" unicode="&#x2021;" horiz-adv-x="611" 
d="M44 542h194v202h133v-202h195v-107h-195v-255h195v-108h-195v-201h-133v201h-194v108h194v255h-194v107z" />
    <glyph glyph-name="bullet" unicode="&#x2022;" horiz-adv-x="371" 
d="M186 196q-29 0 -54.5 11t-44.5 29.5t-30 44t-11 54.5t11 54.5t30 45t44.5 30.5t54.5 11q28 0 53.5 -11t44.5 -30.5t30 -45t11 -54.5t-11 -54.5t-30 -44t-44.5 -29.5t-53.5 -11z" />
    <glyph glyph-name="ellipsis" unicode="&#x2026;" horiz-adv-x="769" 
d="M49 139h139v-139h-139v139zM315 139h140v-139h-140v139zM582 139h139v-139h-139v139z" />
    <glyph glyph-name="perthousand" unicode="&#x2030;" horiz-adv-x="1318" 
d="M609 712h84l-396 -712h-84zM213 314q-39 0 -72 14.5t-56.5 41.5t-37 65.5t-13.5 85.5t13.5 85.5t37.5 65.5t56.5 41.5t71.5 14.5t71.5 -14.5t56.5 -41t37 -65t13 -86.5q0 -47 -13 -85.5t-36.5 -65.5t-56.5 -41.5t-72 -14.5zM693 -17q-39 0 -72 15t-56.5 42t-37 65.5
t-13.5 85.5t13.5 85.5t37.5 65.5t57 41.5t71 14.5q39 0 72 -14.5t57 -41.5t37 -65t13 -86q0 -47 -13 -85.5t-36.5 -65.5t-56.5 -42t-73 -15zM213 391q39 0 58 36.5t19 93.5q0 56 -19.5 94t-57.5 38t-56.5 -37t-18.5 -95q0 -57 18.5 -93.5t56.5 -36.5zM693 61q39 0 57.5 36.5
t18.5 93.5q0 56 -19 94t-57 38t-56.5 -37.5t-18.5 -94.5t18.5 -93.5t56.5 -36.5zM1106 -17q-40 0 -73 15t-57 42t-37 65.5t-13 85.5t13.5 85.5t37.5 65.5t57 41.5t72 14.5t72 -14.5t56.5 -41.5t37 -65t13.5 -86q0 -47 -13 -85.5t-37 -65.5t-57 -42t-72 -15zM1106 61
q39 0 57.5 36.5t18.5 93.5q0 56 -19.5 94t-56.5 38q-39 0 -57.5 -37.5t-18.5 -94.5t18.5 -93.5t57.5 -36.5z" />
    <glyph glyph-name="uni2032" unicode="&#x2032;" horiz-adv-x="220" 
d="M77 744h112l-45 -261h-113z" />
    <glyph glyph-name="uni2033" unicode="&#x2033;" horiz-adv-x="404" 
d="M260 744h112l-44 -261h-113zM77 744h112l-45 -261h-113z" />
    <glyph glyph-name="guilsinglleft" unicode="&#x2039;" horiz-adv-x="311" 
d="M68 209v126l174 157v-123l-108 -97v-2l108 -96v-123z" />
    <glyph glyph-name="guilsinglright" unicode="&#x203a;" horiz-adv-x="311" 
d="M242 334v-125l-174 -158v123l109 97v2l-109 97v122z" />
    <glyph glyph-name="fraction" unicode="&#x2044;" horiz-adv-x="253" 
d="M361 744h96l-638 -874h-95z" />
    <glyph glyph-name="zero.superior" unicode="&#x2070;" horiz-adv-x="479" 
d="M240 276q-45 0 -82.5 17t-65 48t-43 75.5t-15.5 99.5q0 54 15.5 98t43 75t65.5 48t82 17q45 0 82.5 -16.5t65 -47.5t42.5 -75t15 -99t-15 -99.5t-42.5 -75.5t-65 -48t-82.5 -17zM240 358q50 0 73 43.5t23 114.5q0 69 -23 113.5t-73 44.5t-73 -44t-23 -114
q0 -71 23 -114.5t73 -43.5z" />
    <glyph glyph-name="four.superior" unicode="&#x2074;" horiz-adv-x="446" 
d="M253 387h-222v92l223 270h104v-286h69v-76h-69v-100h-105v100zM99 458q14 1 27 2q11 1 24 2t24 1h79v111q0 11 0.5 24.5t2.5 24.5q2 13 4 27h-2q-8 -13 -16 -24q-7 -10 -15 -21.5t-16 -19.5l-55 -68q-8 -10 -17.5 -20t-18.5 -18q-11 -10 -21 -19v-2z" />
    <glyph glyph-name="five.superior" unicode="&#x2075;" horiz-adv-x="420" 
d="M207 276q-78 0 -128 37.5t-58 99.5h99q7 -25 28.5 -40.5t56.5 -15.5q36 0 59 23t23 60q0 40 -23.5 60.5t-58.5 20.5q-26 0 -46 -9t-31 -23h-92l47 255h279v-82h-209l-19 -104h2q16 17 40 27t57 10t61.5 -10.5t50 -30t34 -48.5t12.5 -65q0 -37 -13.5 -67.5t-38 -52
t-58.5 -33.5t-74 -12z" />
    <glyph glyph-name="six.superior" unicode="&#x2076;" horiz-adv-x="444" 
d="M234 277q-46 0 -80.5 14t-59.5 40q-60 61 -60 185q0 54 12.5 98.5t39.5 76.5q26 31 62 47.5t87 16.5q72 0 113.5 -34t52.5 -88h-103q-4 17 -18.5 32t-45.5 15q-45 0 -69.5 -35.5t-28.5 -101.5h2q38 55 113 55q33 0 62.5 -11.5t51.5 -32.5t35 -50.5t13 -64.5
q0 -36 -13 -66t-37 -51t-57 -33t-72 -12zM230 355q36 0 59 23.5t23 59.5t-23 59.5t-59 23.5q-38 0 -61.5 -23t-23.5 -60q0 -36 24 -59.5t61 -23.5z" />
    <glyph glyph-name="seven.superior" unicode="&#x2077;" horiz-adv-x="388" 
d="M94 287q2 60 17 114t39 101.5t55 86.5t66 69v3q-11 -2 -27 -3q-14 -1 -34.5 -1.5t-48.5 -0.5h-137v88h344v-80q-31 -30 -59.5 -70t-50 -87.5t-35.5 -103t-16 -116.5h-113z" />
    <glyph glyph-name="eight.superior" unicode="&#x2078;" horiz-adv-x="442" 
d="M222 276q-41 0 -76.5 9t-61.5 27t-41 44.5t-15 60.5q0 43 25.5 72.5t70.5 43.5v3q-74 28 -74 93q0 28 12.5 51.5t35 39.5t54 25t69.5 9q78 0 125 -32.5t47 -89.5q0 -67 -73 -94v-3q46 -14 70.5 -43.5t24.5 -71.5q0 -35 -14.5 -62t-40.5 -45t-61 -27.5t-77 -9.5zM221 565
q36 0 54.5 16t18.5 44q0 26 -18.5 42.5t-54.5 16.5q-35 0 -53 -16.5t-18 -42.5q0 -28 18 -44t53 -16zM221 352q42 0 65 19.5t23 51.5q0 34 -22.5 54.5t-64.5 20.5q-41 0 -64.5 -20.5t-23.5 -54.5q0 -33 23.5 -52t63.5 -19z" />
    <glyph glyph-name="nine.superior" unicode="&#x2079;" horiz-adv-x="443" 
d="M217 276q-36 0 -66.5 9.5t-53 26t-37 39.5t-18.5 50h101q5 -18 22 -33.5t49 -15.5q43 0 64 30q26 32 29 103h-2q-19 -23 -45.5 -38t-62.5 -15q-34 0 -64 11.5t-52.5 32.5t-35.5 50.5t-13 65.5t13.5 66t38 51t58 33t73.5 12q39 0 70.5 -11t56.5 -31q37 -29 52.5 -78
t15.5 -119q0 -57 -13.5 -105.5t-42.5 -80.5q-51 -53 -137 -53zM217 509q38 0 61 23.5t23 60.5q0 36 -23.5 60t-60.5 24q-38 0 -61.5 -24t-23.5 -60q0 -37 23.5 -60.5t61.5 -23.5z" />
    <glyph glyph-name="zero.inferior" unicode="&#x2080;" horiz-adv-x="479" 
d="M240 -171q-45 0 -82.5 17t-65 48t-43 75.5t-15.5 99.5q0 54 15.5 98t43 75t65.5 48t82 17q45 0 82.5 -16.5t65 -47.5t42.5 -75t15 -99t-15 -99.5t-42.5 -75.5t-65 -48t-82.5 -17zM240 -90q50 0 73 44t23 115q0 69 -23 113.5t-73 44.5t-73 -44t-23 -114q0 -71 23 -115
t73 -44z" />
    <glyph glyph-name="one.inferior" unicode="&#x2081;" horiz-adv-x="314" 
d="M143 138h-114v71q54 2 89.5 23t43.5 69h87v-461h-106v298z" />
    <glyph glyph-name="two.inferior" unicode="&#x2082;" horiz-adv-x="416" 
d="M28 -160q1 36 11.5 64.5t27 51t38 40.5t44.5 34q26 18 50 32.5t42 28.5t28.5 30t10.5 37q0 30 -18 48t-50 18q-35 0 -55.5 -23.5t-20.5 -62.5h-100q0 79 49 123.5t131 44.5q39 0 70.5 -11.5t53 -31t33 -45.5t11.5 -56q0 -28 -8 -49t-21 -38t-30.5 -30.5t-36.5 -26.5
q-17 -12 -35.5 -23t-36 -22.5t-32.5 -23.5t-23 -25h223v-84h-356v0z" />
    <glyph glyph-name="three.inferior" unicode="&#x2083;" horiz-adv-x="425" 
d="M216 -171q-47 0 -83 12t-60.5 33.5t-38 50.5t-13.5 63h100q2 -33 23 -56t66 -23q38 0 59 17.5t21 51.5t-22.5 49.5t-64.5 15.5h-28v73h25q38 0 58.5 14.5t20.5 43.5q0 27 -19 42.5t-49 15.5q-38 0 -56.5 -21t-20.5 -50h-99q1 31 13.5 57.5t35.5 46t55.5 31t74.5 11.5
q36 0 66.5 -9t52.5 -25.5t34.5 -40t12.5 -53.5q0 -36 -21.5 -58t-59.5 -35v-1q97 -24 97 -113q0 -36 -14 -63t-38.5 -44.5t-57.5 -26.5t-70 -9z" />
    <glyph glyph-name="four.inferior" unicode="&#x2084;" horiz-adv-x="446" 
d="M253 -60h-222v92l223 270h104v-286h69v-76h-69v-100h-105v100zM99 11q14 1 27 2q11 1 24 2t24 1h79v111q0 11 0.5 24.5t2.5 24.5q2 13 4 27h-2q-8 -13 -16 -24q-7 -10 -15 -21.5t-16 -19.5l-55 -68q-8 -10 -17.5 -20t-18.5 -18q-11 -10 -21 -19v-2z" />
    <glyph glyph-name="five.inferior" unicode="&#x2085;" horiz-adv-x="420" 
d="M207 -171q-78 0 -128 37.5t-58 99.5h99q7 -25 28.5 -40.5t56.5 -15.5q36 0 59 23t23 60q0 40 -23.5 60.5t-58.5 20.5q-26 0 -46 -9t-31 -23h-92l47 255h279v-82h-209l-19 -104h2q16 17 40 27t57 10t61.5 -10.5t50 -30t34 -48.5t12.5 -65q0 -37 -13.5 -67.5t-38 -52
t-58.5 -33.5t-74 -12z" />
    <glyph glyph-name="six.inferior" unicode="&#x2086;" horiz-adv-x="444" 
d="M234 -171q-46 0 -80.5 14.5t-59.5 40.5q-31 31 -45.5 77.5t-14.5 107.5q0 54 12.5 98.5t39.5 76.5q26 31 62 47.5t87 16.5q72 0 113.5 -34t52.5 -88h-103q-4 17 -18.5 32t-45.5 15q-45 0 -69.5 -35.5t-28.5 -101.5h2q38 55 113 55q33 0 62.5 -11.5t51.5 -32.5t35 -50.5
t13 -64.5q0 -36 -13 -66t-37 -51.5t-57 -33.5t-72 -12zM230 -92q36 0 59 23.5t23 59.5t-23 59.5t-59 23.5q-38 0 -61.5 -23t-23.5 -60q0 -36 24 -59.5t61 -23.5z" />
    <glyph glyph-name="seven.inferior" unicode="&#x2087;" horiz-adv-x="388" 
d="M94 -160q2 60 17 114t39 101.5t55 86.5t66 69v3q-11 -2 -27 -3q-14 -1 -34.5 -1.5t-48.5 -0.5h-137v88h344v-81q-31 -30 -59.5 -69.5t-50 -87t-35.5 -103t-16 -116.5h-113z" />
    <glyph glyph-name="eight.inferior" unicode="&#x2088;" horiz-adv-x="442" 
d="M222 -171q-41 0 -76.5 9t-61.5 27t-41 44.5t-15 60.5q0 43 25.5 72.5t70.5 43.5v3q-74 28 -74 93q0 28 12.5 51.5t35 39.5t54 25t69.5 9q78 0 125 -32.5t47 -89.5q0 -67 -73 -94v-3q46 -14 70.5 -43.5t24.5 -71.5q0 -35 -14.5 -62t-40.5 -45t-61 -27.5t-77 -9.5zM221 118
q36 0 54.5 16t18.5 44q0 26 -18.5 42.5t-54.5 16.5q-35 0 -53 -16.5t-18 -42.5q0 -28 18 -44t53 -16zM221 -95q42 0 65 19.5t23 51.5q0 34 -22.5 54.5t-64.5 20.5q-41 0 -64.5 -20.5t-23.5 -54.5q0 -33 23.5 -52t63.5 -19z" />
    <glyph glyph-name="nine.inferior" unicode="&#x2089;" horiz-adv-x="443" 
d="M217 -171q-36 0 -66.5 9.5t-53 26t-37 39.5t-18.5 50h101q5 -18 22 -33.5t49 -15.5q43 0 64 30q26 32 29 103h-2q-19 -24 -45.5 -38.5t-62.5 -14.5q-34 0 -64 11.5t-52.5 32.5t-35.5 50.5t-13 65.5t13.5 66t38 51t58 33t73.5 12q39 0 70.5 -11t56.5 -31q37 -29 52.5 -78
t15.5 -119q0 -57 -13.5 -105.5t-42.5 -80.5q-51 -53 -137 -53zM217 62q38 0 61 23.5t23 60.5q0 36 -23.5 60t-60.5 24q-38 0 -61.5 -24t-23.5 -60q0 -37 23.5 -60.5t61.5 -23.5z" />
    <glyph glyph-name="Euro" unicode="&#x20ac;" horiz-adv-x="673" 
d="M29 453h59q11 62 37 112.5t63.5 86.5t86 56t105.5 20t102 -17t78 -47.5t52.5 -72.5t24.5 -91h-129q-11 56 -42.5 88.5t-88.5 32.5q-64 0 -101.5 -45t-51.5 -123h183v-62h-190q-1 -9 -1 -18v-18v-20.5t1 -19.5h190v-62h-182q15 -78 55 -119t104 -41q31 0 55 11t41 30.5
t27 46t13 57.5h125q-3 -54 -21.5 -100.5t-52 -80.5t-80.5 -53.5t-106 -19.5q-57 0 -105.5 18.5t-87 53.5t-65.5 84.5t-39 112.5h-59v62h51q-1 10 -1 19.5v20.5v18t1 18h-51v62z" />
    <glyph glyph-name="afii61289" unicode="&#x2113;" horiz-adv-x="417" 
d="M76 597q0 41 12 70.5t33.5 48t50.5 27.5t64 9t62.5 -9t46.5 -29.5t29 -53t10 -79.5q0 -67 -13.5 -119t-37.5 -93t-58.5 -71.5t-76.5 -54.5v-71q0 -41 16 -56.5t52 -15.5q24 0 40 5t32 11h3v-101q-18 -8 -45.5 -14t-57.5 -6q-37 0 -67 8t-51 26.5t-32.5 49t-11.5 75.5v37
q-13 -5 -29.5 -10t-29.5 -8v79q14 5 30.5 10.5t28.5 10.5v324zM243 388q21 32 34 79.5t13 116.5q0 47 -12.5 63.5t-32.5 16.5t-33.5 -14.5t-13.5 -49.5v-267q11 10 22.5 23.5t22.5 31.5z" />
    <glyph glyph-name="trademark" unicode="&#x2122;" horiz-adv-x="920" 
d="M437 744h129l42 -139q6 -20 12 -45t11 -47l12 -52h2q5 26 11 52q5 22 11.5 47t12.5 45l42 139h131v-382h-85v126v53t1 55q1 30 2 59h-3l-14 -54q-6 -23 -14 -51.5t-16 -53.5l-41 -134h-79l-42 134q-8 26 -15.5 54t-13.5 51l-14 54h-2q0 -29 1 -59q1 -26 1.5 -55t0.5 -53
v-126h-83v382zM45 744h325v-78h-115v-304h-94v304h-116v78z" />
    <glyph glyph-name="Omega" unicode="&#x2126;" horiz-adv-x="775" 
d="M43 109h125v2q-131 84 -131 280q0 82 25.5 149.5t72 116t111 75.5t142.5 27t142.5 -27t111 -75.5t72 -116t25.5 -149.5q0 -99 -34 -168.5t-99 -111.5v-2h126v-109h-306v104q45 7 77.5 32t53.5 62.5t31 85.5t10 102q0 59 -14.5 107t-41.5 81.5t-66 51.5t-88 18
q-50 0 -89 -18t-66 -51.5t-41.5 -81.5t-14.5 -107q0 -54 10 -102t31 -85.5t53.5 -62.5t77.5 -32v-104h-306v109z" />
    <glyph glyph-name="estimated" unicode="&#x212e;" horiz-adv-x="720" 
d="M202 335v-242q32 -26 74.5 -40.5t101.5 -14.5q100 0 157.5 45t84.5 124h55q-11 -48 -35.5 -88t-61.5 -69.5t-87 -46t-113 -16.5q-80 0 -143 26.5t-106.5 73.5t-66 112.5t-22.5 143.5t24.5 143t69 112t105.5 73t134 26q61 0 111 -17t87 -49q62 -51 85.5 -125.5
t22.5 -170.5h-477zM373 650q-54 0 -98 -16t-73 -41v-212h318v226q-26 19 -63 31t-84 12z" />
    <glyph glyph-name="onethird" unicode="&#x2153;" horiz-adv-x="937" 
d="M146 585h-114v71q54 2 89.5 23.5t43.5 69.5h87v-462h-106v298zM688 744h96l-638 -874h-95zM724 -121q-47 0 -83 12t-60.5 33.5t-38 50.5t-13.5 63h100q2 -33 23 -56t66 -23q38 0 59 17.5t21 51.5t-22.5 49.5t-64.5 15.5h-28v73h25q38 0 58.5 14.5t20.5 43.5
q0 27 -19 42.5t-49 15.5q-38 0 -56.5 -21t-20.5 -50h-99q1 31 13.5 57.5t35.5 46t55.5 31t74.5 11.5q36 0 66.5 -9t52.5 -25.5t34.5 -40t12.5 -53.5q0 -36 -21.5 -58t-59.5 -35v-1q97 -24 97 -113q0 -36 -14 -63t-38.5 -44.5t-57.5 -26.5t-70 -9z" />
    <glyph glyph-name="twothirds" unicode="&#x2154;" horiz-adv-x="1019" 
d="M31 287q1 36 11.5 64.5t27 51t38 41t44.5 34.5q26 18 50 32t42 28t28.5 30t10.5 37q0 30 -18 48t-50 18q-35 0 -55.5 -23.5t-20.5 -62.5h-100q0 80 49 124t131 44q39 0 70.5 -11.5t53 -31t33 -45.5t11.5 -56q0 -28 -8 -49t-21 -38t-30.5 -30.5t-36.5 -26.5
q-17 -12 -35.5 -23t-36 -22.5t-32.5 -23.5t-23 -25h223v-84h-356zM786 744h96l-638 -874h-95zM807 -121q-47 0 -83 12t-60.5 33.5t-38 50.5t-13.5 63h100q2 -33 23 -56t66 -23q38 0 59 17.5t21 51.5t-22.5 49.5t-64.5 15.5h-28v73h25q38 0 58.5 14.5t20.5 43.5
q0 27 -19 42.5t-49 15.5q-38 0 -56.5 -21t-20.5 -50h-99q1 31 13.5 57.5t35.5 46t55.5 31t74.5 11.5q36 0 66.5 -9t52.5 -25.5t34.5 -40t12.5 -53.5q0 -36 -21.5 -58t-59.5 -35v-1q97 -24 97 -113q0 -36 -14 -63t-38.5 -44.5t-57.5 -26.5t-70 -9z" />
    <glyph glyph-name="oneeighth" unicode="&#x215b;" horiz-adv-x="929" 
d="M146 585h-114v71q54 2 89.5 23.5t43.5 69.5h87v-462h-106v298zM682 744h96l-638 -874h-95zM706 -121q-41 0 -76.5 9t-61.5 27t-41 44.5t-15 60.5q0 43 25.5 72.5t70.5 43.5v3q-74 28 -74 93q0 28 12.5 51.5t35 39.5t54 25t69.5 9q78 0 125 -32.5t47 -89.5q0 -67 -73 -94
v-3q46 -14 70.5 -43.5t24.5 -71.5q0 -35 -14.5 -62t-40.5 -45t-61 -27.5t-77 -9.5zM705 168q36 0 54.5 16t18.5 44q0 26 -18.5 42.5t-54.5 16.5q-35 0 -53 -16.5t-18 -42.5q0 -28 18 -44t53 -16zM705 -45q42 0 65 19.5t23 51.5q0 34 -22.5 54.5t-64.5 20.5
q-41 0 -64.5 -20.5t-23.5 -54.5q0 -33 23.5 -52t63.5 -19z" />
    <glyph glyph-name="threeeighths" unicode="&#x215c;" horiz-adv-x="999" 
d="M219 276q-47 0 -83 12t-60.5 33.5t-38 50.5t-13.5 63h100q2 -33 23 -56t66 -23q38 0 59 17.5t21 51.5t-22.5 49.5t-64.5 15.5h-28v73h25q38 0 58.5 14.5t20.5 43.5q0 27 -19 42.5t-49 15.5q-38 0 -56.5 -21t-20.5 -50h-99q1 31 13.5 57.5t35.5 46t55.5 31t74.5 11.5
q36 0 66.5 -9t52.5 -25.5t34.5 -40t12.5 -53.5q0 -36 -21.5 -58t-59.5 -35v-1q97 -24 97 -113q0 -36 -14 -63t-38.5 -44.5t-57.5 -26.5t-70 -9zM761 744h96l-638 -874h-95zM775 -121q-41 0 -76.5 9t-61.5 27t-41 44.5t-15 60.5q0 43 25.5 72.5t70.5 43.5v3q-74 28 -74 93
q0 28 12.5 51.5t35 39.5t54 25t69.5 9q78 0 125 -32.5t47 -89.5q0 -67 -73 -94v-3q46 -14 70.5 -43.5t24.5 -71.5q0 -35 -14.5 -62t-40.5 -45t-61 -27.5t-77 -9.5zM774 168q36 0 54.5 16t18.5 44q0 26 -18.5 42.5t-54.5 16.5q-35 0 -53 -16.5t-18 -42.5q0 -28 18 -44t53 -16
zM774 -45q42 0 65 19.5t23 51.5q0 34 -22.5 54.5t-64.5 20.5q-41 0 -64.5 -20.5t-23.5 -54.5q0 -33 23.5 -52t63.5 -19z" />
    <glyph glyph-name="fiveeighths" unicode="&#x215d;" horiz-adv-x="983" 
d="M210 276q-78 0 -128 37.5t-58 99.5h99q7 -25 28.5 -40.5t56.5 -15.5q36 0 59 23t23 60q0 40 -23.5 60.5t-58.5 20.5q-26 0 -46 -9t-31 -23h-92l47 255h279v-82h-209l-19 -104h2q16 17 40 27t57 10t61.5 -10.5t50 -30t34 -48.5t12.5 -65q0 -37 -13.5 -67.5t-38 -52
t-58.5 -33.5t-74 -12zM747 744h96l-638 -874h-95zM759 -121q-41 0 -76.5 9t-61.5 27t-41 44.5t-15 60.5q0 43 25.5 72.5t70.5 43.5v3q-74 28 -74 93q0 28 12.5 51.5t35 39.5t54 25t69.5 9q78 0 125 -32.5t47 -89.5q0 -67 -73 -94v-3q46 -14 70.5 -43.5t24.5 -71.5
q0 -35 -14.5 -62t-40.5 -45t-61 -27.5t-77 -9.5zM758 168q36 0 54.5 16t18.5 44q0 26 -18.5 42.5t-54.5 16.5q-35 0 -53 -16.5t-18 -42.5q0 -28 18 -44t53 -16zM758 -45q42 0 65 19.5t23 51.5q0 34 -22.5 54.5t-64.5 20.5q-41 0 -64.5 -20.5t-23.5 -54.5q0 -33 23.5 -52
t63.5 -19z" />
    <glyph glyph-name="seveneighths" unicode="&#x215e;" horiz-adv-x="945" 
d="M721 -121q-41 0 -76.5 9t-61.5 27t-41 44.5t-15 60.5q0 43 25.5 72.5t70.5 43.5v3q-74 28 -74 93q0 28 12.5 51.5t35 39.5t54 25t69.5 9q78 0 125 -32.5t47 -89.5q0 -67 -73 -94v-3q46 -14 70.5 -43.5t24.5 -71.5q0 -35 -14.5 -62t-40.5 -45t-61 -27.5t-77 -9.5zM681 744
h96l-638 -874h-95zM97 287q2 60 17 114t39 101.5t55 86.5t66 69v3q-11 -2 -27 -3q-14 -1 -34.5 -1.5t-48.5 -0.5h-137v88h344v-80q-31 -30 -59.5 -70t-50 -87.5t-35.5 -103t-16 -116.5h-113zM720 -45q42 0 65 19.5t23 51.5q0 34 -22.5 54.5t-64.5 20.5q-41 0 -64.5 -20.5
t-23.5 -54.5q0 -33 23.5 -52t63.5 -19zM720 168q36 0 54.5 16t18.5 44q0 26 -18.5 42.5t-54.5 16.5q-35 0 -53 -16.5t-18 -42.5q0 -28 18 -44t53 -16z" />
    <glyph glyph-name="partialdiff" unicode="&#x2202;" horiz-adv-x="606" 
d="M429 432q-18 95 -80 144t-177 67v108q105 -11 179 -45t121 -90.5t68.5 -133t21.5 -170.5q0 -66 -17 -125.5t-51.5 -104.5t-87.5 -71.5t-126 -26.5q-57 0 -102 17.5t-76 48t-47.5 72t-16.5 89.5q0 58 19 108t53 87t82 57.5t105 20.5q39 0 74 -12.5t58 -39.5zM282 79
q36 0 63 16t45.5 42.5t28 59.5t9.5 67q0 58 -29.5 92.5t-87.5 34.5q-33 0 -60 -13t-45.5 -36.5t-29 -56.5t-10.5 -73q0 -60 29 -96.5t87 -36.5z" />
    <glyph glyph-name="Delta" unicode="&#x2206;" horiz-adv-x="716" 
d="M28 101l251 643h157l253 -643v-101h-661v101zM168 109h373l-135 354q-13 33 -22 63.5t-15 54.5q-7 28 -13 53h-2q-5 -25 -13 -53q-7 -24 -16.5 -54.5t-21.5 -63.5z" />
    <glyph glyph-name="product" unicode="&#x220f;" horiz-adv-x="757" 
d="M682 744v-848h-140v729h-328v-729h-139v848h607z" />
    <glyph glyph-name="summation" unicode="&#x2211;" horiz-adv-x="671" 
d="M50 -104v122l274 310v2l-274 298v116h566v-112h-406v-2l253 -271v-55l-260 -289v-2h423v-117h-576z" />
    <glyph glyph-name="minus" unicode="&#x2212;" horiz-adv-x="604" 
d="M58 391h488v-101h-488v101z" />
    <glyph glyph-name="uni2215" unicode="&#x2215;" horiz-adv-x="253" 
d="M361 744h96l-638 -874h-95z" />
    <glyph glyph-name="uni2219" unicode="&#x2219;" horiz-adv-x="246" 
d="M53 398h140v-140h-140v140z" />
    <glyph glyph-name="radical" unicode="&#x221a;" horiz-adv-x="664" 
d="M23 336h170l63 -163q11 -28 19.5 -55.5t15.5 -49.5q8 -26 15 -49h2q6 23 12 49q5 22 12.5 49.5t16.5 55.5l175 571h131l-273 -848h-143l-135 328h-81v112z" />
    <glyph glyph-name="infinity" unicode="&#x221e;" horiz-adv-x="747" 
d="M194 131q-40 0 -70.5 15t-51 40.5t-31 59t-10.5 71.5q0 37 10.5 71t31.5 59t51.5 40t69.5 15q32 0 58 -9t48.5 -25t41 -37t35.5 -45q16 24 34 45t39 37t46.5 25t55.5 9q36 0 66 -13t51.5 -37.5t33.5 -58.5t12 -76t-12 -76.5t-33.5 -58.5t-51.5 -37.5t-66 -13.5
q-30 0 -55.5 9t-46.5 25t-39 37.5t-34 46.5q-17 -25 -35.5 -46.5t-41 -37.5t-48.5 -25t-58 -9zM202 405q-36 0 -52 -25.5t-16 -62.5t16 -63t52 -26q34 0 60.5 27t46.5 61q-20 35 -46 62t-61 27zM544 228q37 0 53.5 26t16.5 63t-16.5 62.5t-53.5 25.5q-32 0 -56.5 -27
t-45.5 -62q21 -34 45.5 -61t56.5 -27z" />
    <glyph glyph-name="integral" unicode="&#x222b;" horiz-adv-x="370" 
d="M117 596q0 86 43 123t121 37q23 0 44.5 -2.5t40.5 -7.5v-99h-3q-8 2 -20 4t-29 2q-35 0 -52.5 -15t-17.5 -51v-612q0 -84 -43 -122t-120 -38q-24 0 -46 2.5t-40 7.5v100h3q9 -2 21.5 -4t29.5 -2q34 0 51 15t17 51v611z" />
    <glyph glyph-name="approxequal" unicode="&#x2248;" horiz-adv-x="604" 
d="M426 357q-30 0 -63.5 6t-65.5 13t-60.5 13t-49.5 6q-40 0 -44 -45h-88q1 76 36 112t89 36q30 0 63.5 -6t65 -13.5t59 -13.5t46.5 -6q24 0 34 11t12 32h89q-1 -69 -30.5 -107t-92.5 -38zM426 155q-30 0 -63.5 6t-65.5 13t-60.5 13t-49.5 6q-40 0 -44 -45h-88
q1 77 36 112.5t89 35.5q30 0 63.5 -6t65 -13.5t59 -13.5t46.5 -6q24 0 34 11t12 32h89q-1 -69 -30.5 -107t-92.5 -38z" />
    <glyph glyph-name="notequal" unicode="&#x2260;" horiz-adv-x="602" 
d="M62 474h272l58 113h88l-58 -113h120v-97h-169l-54 -106h223v-97h-272l-57 -113h-88l57 113h-120v97h169l54 106h-223v97z" />
    <glyph glyph-name="lessequal" unicode="&#x2264;" horiz-adv-x="544" 
d="M57 98h425v-98h-425v98zM57 289v126l425 155v-109l-200 -67q-21 -7 -45.5 -14.5t-46.5 -13.5q-26 -7 -50 -14v-2q25 -7 51 -13q22 -5 46.5 -12t44.5 -13l200 -67v-111z" />
    <glyph glyph-name="greaterequal" unicode="&#x2265;" horiz-adv-x="544" 
d="M487 0h-425v98h425v-98zM62 134v109l201 68q20 7 44.5 14t46.5 13l50 14v2q-25 6 -50 13q-22 6 -46.5 12.5t-44.5 13.5l-201 67v110l425 -155v-126z" />
    <glyph glyph-name="uni24C5" unicode="&#x24c5;" horiz-adv-x="865" 
d="M433 -18q-80 0 -150 29t-121.5 81t-81 123t-29.5 154q0 84 29.5 155t81 122.5t121.5 81t150 29.5t150 -29.5t121.5 -81t81 -122.5t29.5 -155q0 -83 -29.5 -154t-81 -123t-121.5 -81t-150 -29zM433 28q70 0 129.5 26t103 71.5t68.5 108t25 135.5t-25 136t-68.5 108.5
t-103 71.5t-129.5 26t-130 -26t-104 -71.5t-69 -108.5t-25 -136t25 -135.5t69 -108t104 -71.5t130 -26zM284 583h188q71 0 112 -39q18 -19 28 -44t10 -54q0 -60 -37 -97.5t-103 -37.5h-103v-148h-95v420zM379 385h82q32 0 49.5 15.5t17.5 43.5q0 29 -17 45t-49 16h-83v-120z
" />
    <glyph glyph-name="lozenge" unicode="&#x25ca;" horiz-adv-x="610" 
d="M584 371l-209 -371h-139l-210 372l209 372h139zM252 203q14 -26 23.5 -47t16.5 -36q8 -18 13 -31h2q5 13 12 31q6 15 16 36t24 47l88 165l-90 171q-14 26 -23.5 47.5t-16.5 36.5q-8 18 -13 30h-2l-12 -30q-6 -15 -16 -36.5t-24 -47.5l-89 -165z" />
    <glyph glyph-name="f_i" unicode="&#xf001;" horiz-adv-x="605" 
d="M25 534h82v59q0 85 50 119q22 18 55.5 26t75.5 8q27 0 57 -3v-95q-32 1 -53 -0.5t-34 -8t-18.5 -19.5t-5.5 -35v-51h110v-88h-110v-446h-127v446h-82v88zM421 534h126v-534h-126v534zM419 744h130v-123h-130v123z" />
    <glyph glyph-name="f_l" unicode="&#xf002;" horiz-adv-x="608" 
d="M25 534h82v59q0 85 50 119q22 18 55.5 26.5t75.5 7.5q27 0 57 -3v-95q-32 1 -53 -0.5t-34 -8t-18.5 -19.5t-5.5 -35v-51h110v-88h-110v-446h-127v446h-82v88zM421 744h127v-744h-127v744z" />
    <glyph glyph-name="uniF8FF" unicode="&#xf8ff;" horiz-adv-x="880" 
d="M68 745h745v-745h-745v745zM190 299h175v-176h150v176h175v149h-175v170h-150v-170h-175v-149z" />
    <glyph glyph-name="dotlessj" horiz-adv-x="243" 
d="M42 -176q-19 0 -38.5 2t-33.5 5v93h5q9 0 17 -0.5t16 0.5q25 2 37.5 13t12.5 40v557h127v-562q0 -46 -10.5 -72.5t-27.5 -42.5q-20 -18 -46.5 -25.5t-58.5 -7.5z" />
    <glyph glyph-name="commaaccent" 
d="M317 -131q0 -62 -37.5 -91t-95.5 -33v49q29 5 46 18t17 37h-61v100h131v-80z" />
    <glyph glyph-name="zero.denominator" horiz-adv-x="479" 
d="M240 -121q-45 0 -82.5 17t-65 48t-43 75.5t-15.5 99.5q0 54 15.5 98t43 75t65.5 48t82 17q45 0 82.5 -16.5t65 -47.5t42.5 -75t15 -99t-15 -99.5t-42.5 -75.5t-65 -48t-82.5 -17zM240 -40q50 0 73 44t23 115q0 69 -23 113.5t-73 44.5t-73 -44t-23 -114q0 -71 23 -115
t73 -44z" />
    <glyph glyph-name="one.denominator" horiz-adv-x="314" 
d="M143 188h-114v71q54 2 89.5 23t43.5 69h87v-461h-106v298z" />
    <glyph glyph-name="two.denominator" horiz-adv-x="416" 
d="M28 -110q1 36 11.5 64.5t27 51t38 40.5t44.5 34q26 18 50 32.5t42 28.5t28.5 30t10.5 37q0 30 -18 48t-50 18q-35 0 -55.5 -23.5t-20.5 -62.5h-100q0 79 49 123.5t131 44.5q39 0 70.5 -11.5t53 -31t33 -45.5t11.5 -56q0 -28 -8 -49t-21 -38t-30.5 -30.5t-36.5 -26.5
q-17 -12 -35.5 -23t-36 -22.5t-32.5 -23.5t-23 -25h223v-84h-356v0z" />
    <glyph glyph-name="three.denominator" horiz-adv-x="425" 
d="M216 -121q-47 0 -83 12t-60.5 33.5t-38 50.5t-13.5 63h100q2 -33 23 -56t66 -23q38 0 59 17.5t21 51.5t-22.5 49.5t-64.5 15.5h-28v73h25q38 0 58.5 14.5t20.5 43.5q0 27 -19 42.5t-49 15.5q-38 0 -56.5 -21t-20.5 -50h-99q1 31 13.5 57.5t35.5 46t55.5 31t74.5 11.5
q36 0 66.5 -9t52.5 -25.5t34.5 -40t12.5 -53.5q0 -36 -21.5 -58t-59.5 -35v-1q97 -24 97 -113q0 -36 -14 -63t-38.5 -44.5t-57.5 -26.5t-70 -9z" />
    <glyph glyph-name="four.denominator" horiz-adv-x="446" 
d="M253 -10h-222v92l223 270h104v-286h69v-76h-69v-100h-105v100zM99 61q14 1 27 2q11 1 24 2t24 1h79v111q0 11 0.5 24.5t2.5 24.5q2 13 4 27h-2q-8 -13 -16 -24q-7 -10 -15 -21.5t-16 -19.5l-55 -68q-8 -10 -17.5 -20t-18.5 -18q-11 -10 -21 -19v-2z" />
    <glyph glyph-name="five.denominator" horiz-adv-x="420" 
d="M207 -121q-78 0 -128 37.5t-58 99.5h99q7 -25 28.5 -40.5t56.5 -15.5q36 0 59 23t23 60q0 40 -23.5 60.5t-58.5 20.5q-26 0 -46 -9t-31 -23h-92l47 255h279v-82h-209l-19 -104h2q16 17 40 27t57 10t61.5 -10.5t50 -30t34 -48.5t12.5 -65q0 -37 -13.5 -67.5t-38 -52
t-58.5 -33.5t-74 -12z" />
    <glyph glyph-name="six.denominator" horiz-adv-x="444" 
d="M234 -121q-46 0 -80.5 14.5t-59.5 40.5q-31 31 -45.5 77.5t-14.5 107.5q0 54 12.5 98.5t39.5 76.5q26 31 62 47.5t87 16.5q72 0 113.5 -34t52.5 -88h-103q-4 17 -18.5 32t-45.5 15q-45 0 -69.5 -35.5t-28.5 -101.5h2q38 55 113 55q33 0 62.5 -11.5t51.5 -32.5t35 -50.5
t13 -64.5q0 -36 -13 -66t-37 -51.5t-57 -33.5t-72 -12zM230 -42q36 0 59 23.5t23 59.5t-23 59.5t-59 23.5q-38 0 -61.5 -23t-23.5 -60q0 -36 24 -59.5t61 -23.5z" />
    <glyph glyph-name="seven.denominator" horiz-adv-x="388" 
d="M94 -110q2 60 17 114t39 101.5t55 86.5t66 69v3q-11 -2 -27 -3q-14 -1 -34.5 -1.5t-48.5 -0.5h-137v88h344v-81q-31 -30 -59.5 -69.5t-50 -87t-35.5 -103t-16 -116.5h-113z" />
    <glyph glyph-name="eight.denominator" horiz-adv-x="442" 
d="M222 -121q-41 0 -76.5 9t-61.5 27t-41 44.5t-15 60.5q0 43 25.5 72.5t70.5 43.5v3q-74 28 -74 93q0 28 12.5 51.5t35 39.5t54 25t69.5 9q78 0 125 -32.5t47 -89.5q0 -67 -73 -94v-3q46 -14 70.5 -43.5t24.5 -71.5q0 -35 -14.5 -62t-40.5 -45t-61 -27.5t-77 -9.5zM221 168
q36 0 54.5 16t18.5 44q0 26 -18.5 42.5t-54.5 16.5q-35 0 -53 -16.5t-18 -42.5q0 -28 18 -44t53 -16zM221 -45q42 0 65 19.5t23 51.5q0 34 -22.5 54.5t-64.5 20.5q-41 0 -64.5 -20.5t-23.5 -54.5q0 -33 23.5 -52t63.5 -19z" />
    <glyph glyph-name="nine.denominator" horiz-adv-x="443" 
d="M217 -121q-36 0 -66.5 9.5t-53 26t-37 39.5t-18.5 50h101q5 -18 22 -33.5t49 -15.5q43 0 64 30q26 32 29 103h-2q-19 -24 -45.5 -38.5t-62.5 -14.5q-34 0 -64 11.5t-52.5 32.5t-35.5 50.5t-13 65.5t13.5 66t38 51t58 33t73.5 12q39 0 70.5 -11t56.5 -31q37 -29 52.5 -78
t15.5 -119q0 -57 -13.5 -105.5t-42.5 -80.5q-51 -53 -137 -53zM217 112q38 0 61 23.5t23 60.5q0 36 -23.5 60t-60.5 24q-38 0 -61.5 -24t-23.5 -60q0 -37 23.5 -60.5t61.5 -23.5z" />
    <glyph glyph-name="zero.numerator" horiz-adv-x="479" 
d="M240 276q-45 0 -82.5 17t-65 48t-43 75.5t-15.5 99.5q0 54 15.5 98t43 75t65.5 48t82 17q45 0 82.5 -16.5t65 -47.5t42.5 -75t15 -99t-15 -99.5t-42.5 -75.5t-65 -48t-82.5 -17zM240 358q50 0 73 43.5t23 114.5q0 69 -23 113.5t-73 44.5t-73 -44t-23 -114
q0 -71 23 -114.5t73 -43.5z" />
    <glyph glyph-name="one.numerator" horiz-adv-x="314" 
d="M143 585h-114v71q54 2 89.5 23.5t43.5 69.5h87v-462h-106v298z" />
    <glyph glyph-name="two.numerator" horiz-adv-x="416" 
d="M28 287q1 36 11.5 64.5t27 51t38 41t44.5 34.5q26 18 50 32t42 28t28.5 30t10.5 37q0 30 -18 48t-50 18q-35 0 -55.5 -23.5t-20.5 -62.5h-100q0 80 49 124t131 44q39 0 70.5 -11.5t53 -31t33 -45.5t11.5 -56q0 -28 -8 -49t-21 -38t-30.5 -30.5t-36.5 -26.5
q-17 -12 -35.5 -23t-36 -22.5t-32.5 -23.5t-23 -25h223v-84h-356v0z" />
    <glyph glyph-name="three.numerator" horiz-adv-x="425" 
d="M216 276q-47 0 -83 12t-60.5 33.5t-38 50.5t-13.5 63h100q2 -33 23 -56t66 -23q38 0 59 17.5t21 51.5t-22.5 49.5t-64.5 15.5h-28v73h25q38 0 58.5 14.5t20.5 43.5q0 27 -19 42.5t-49 15.5q-38 0 -56.5 -21t-20.5 -50h-99q1 31 13.5 57.5t35.5 46t55.5 31t74.5 11.5
q36 0 66.5 -9t52.5 -25.5t34.5 -40t12.5 -53.5q0 -36 -21.5 -58t-59.5 -35v-1q97 -24 97 -113q0 -36 -14 -63t-38.5 -44.5t-57.5 -26.5t-70 -9z" />
    <glyph glyph-name="four.numerator" horiz-adv-x="446" 
d="M253 387h-222v92l223 270h104v-286h69v-76h-69v-100h-105v100zM99 458q14 1 27 2q11 1 24 2t24 1h79v111q0 11 0.5 24.5t2.5 24.5q2 13 4 27h-2q-8 -13 -16 -24q-7 -10 -15 -21.5t-16 -19.5l-55 -68q-8 -10 -17.5 -20t-18.5 -18q-11 -10 -21 -19v-2z" />
    <glyph glyph-name="five.numerator" horiz-adv-x="420" 
d="M207 276q-78 0 -128 37.5t-58 99.5h99q7 -25 28.5 -40.5t56.5 -15.5q36 0 59 23t23 60q0 40 -23.5 60.5t-58.5 20.5q-26 0 -46 -9t-31 -23h-92l47 255h279v-82h-209l-19 -104h2q16 17 40 27t57 10t61.5 -10.5t50 -30t34 -48.5t12.5 -65q0 -37 -13.5 -67.5t-38 -52
t-58.5 -33.5t-74 -12z" />
    <glyph glyph-name="six.numerator" horiz-adv-x="444" 
d="M234 277q-46 0 -80.5 14t-59.5 40q-60 61 -60 185q0 54 12.5 98.5t39.5 76.5q26 31 62 47.5t87 16.5q72 0 113.5 -34t52.5 -88h-103q-4 17 -18.5 32t-45.5 15q-45 0 -69.5 -35.5t-28.5 -101.5h2q38 55 113 55q33 0 62.5 -11.5t51.5 -32.5t35 -50.5t13 -64.5
q0 -36 -13 -66t-37 -51t-57 -33t-72 -12zM230 355q36 0 59 23.5t23 59.5t-23 59.5t-59 23.5q-38 0 -61.5 -23t-23.5 -60q0 -36 24 -59.5t61 -23.5z" />
    <glyph glyph-name="seven.numerator" horiz-adv-x="388" 
d="M94 287q2 60 17 114t39 101.5t55 86.5t66 69v3q-11 -2 -27 -3q-14 -1 -34.5 -1.5t-48.5 -0.5h-137v88h344v-80q-31 -30 -59.5 -70t-50 -87.5t-35.5 -103t-16 -116.5h-113z" />
    <glyph glyph-name="eight.numerator" horiz-adv-x="442" 
d="M222 276q-41 0 -76.5 9t-61.5 27t-41 44.5t-15 60.5q0 43 25.5 72.5t70.5 43.5v3q-74 28 -74 93q0 28 12.5 51.5t35 39.5t54 25t69.5 9q78 0 125 -32.5t47 -89.5q0 -67 -73 -94v-3q46 -14 70.5 -43.5t24.5 -71.5q0 -35 -14.5 -62t-40.5 -45t-61 -27.5t-77 -9.5zM221 565
q36 0 54.5 16t18.5 44q0 26 -18.5 42.5t-54.5 16.5q-35 0 -53 -16.5t-18 -42.5q0 -28 18 -44t53 -16zM221 352q42 0 65 19.5t23 51.5q0 34 -22.5 54.5t-64.5 20.5q-41 0 -64.5 -20.5t-23.5 -54.5q0 -33 23.5 -52t63.5 -19z" />
    <glyph glyph-name="nine.numerator" horiz-adv-x="443" 
d="M217 276q-36 0 -66.5 9.5t-53 26t-37 39.5t-18.5 50h101q5 -18 22 -33.5t49 -15.5q43 0 64 30q26 32 29 103h-2q-19 -23 -45.5 -38t-62.5 -15q-34 0 -64 11.5t-52.5 32.5t-35.5 50.5t-13 65.5t13.5 66t38 51t58 33t73.5 12q39 0 70.5 -11t56.5 -31q37 -29 52.5 -78
t15.5 -119q0 -57 -13.5 -105.5t-42.5 -80.5q-51 -53 -137 -53zM217 509q38 0 61 23.5t23 60.5q0 36 -23.5 60t-60.5 24q-38 0 -61.5 -24t-23.5 -60q0 -37 23.5 -60.5t61.5 -23.5z" />
    <glyph glyph-name="acute.cap" 
d="M236 913h154l-100 -128h-102z" />
    <glyph glyph-name="breve.cap" 
d="M271 779q-64 0 -106 37.5t-45 98.5h79q5 -23 22 -37.5t49 -14.5q31 0 48.5 15t22.5 37h77q-1 -29 -12 -53.5t-30 -43t-45.5 -29t-59.5 -10.5z" />
    <glyph glyph-name="caron.alt" 
d="M304 671q0 -61 -31.5 -88t-85.5 -30v47q28 4 40.5 16.5t13.5 34.5h-53v93h116v-73z" />
    <glyph glyph-name="caron.cap" 
d="M314 785h-129l-104 123h117l50 -59h2l52 59h117z" />
    <glyph glyph-name="circumflex.cap" 
d="M186 908h129l104 -123h-117l-50 59h-2l-52 -59h-117z" />
    <glyph glyph-name="commaaccent.alt" 
d="M317 -131q0 -62 -37.5 -91t-95.5 -33v49q29 5 46 18t17 37h-61v100h131v-80z" />
    <glyph glyph-name="dieresis.cap" 
d="M300 907h125v-122h-125v122zM75 907h125v-122h-125v122z" />
    <glyph glyph-name="dotaccent.cap" 
d="M185 907h130v-122h-130v122z" />
    <glyph glyph-name="grave.cap" 
d="M110 913h154l47 -128h-101z" />
    <glyph glyph-name="hungarumlaut.cap" 
d="M314 913h128l-75 -128h-86zM141 913h129l-75 -128h-88z" />
    <glyph glyph-name="macron.cap" 
d="M102 886h299v-94h-299v94z" />
    <glyph glyph-name="ring.cap" 
d="M251 767q-23 0 -43 8t-35 22.5t-23.5 33.5t-8.5 42q0 22 8.5 41t23.5 33t35 22.5t43 8.5q22 0 41.5 -8.5t34.5 -22.5t23.5 -33t8.5 -41q0 -23 -8.5 -42t-23.5 -33.5t-34.5 -22.5t-41.5 -8zM251 817q23 0 38 16t15 40q0 23 -15 39.5t-38 16.5q-25 0 -40 -16.5t-15 -39.5
q0 -24 15 -40t40 -16z" />
    <glyph glyph-name="tilde.cap" 
d="M321 786q-21 0 -39.5 6t-34.5 13.5t-29 14t-24 6.5q-12 0 -21 -11t-11 -29h-75q1 62 28 93.5t69 31.5q22 0 39.5 -6t32 -13.5t27 -13.5t26.5 -6q15 0 22 10t9 27h76q-2 -57 -25.5 -90t-69.5 -33z" />
    <glyph glyph-name="Tcommaaccent" horiz-adv-x="661" 
d="M29 744h604v-119h-233v-625h-139v625h-232v119zM397 -131q0 -62 -37.5 -91t-95.5 -33v49q29 5 46 18t17 37h-61v100h131v-80z" />
    <glyph glyph-name="idotaccent" horiz-adv-x="242" 
d="M56 744h130v-123h-130v123zM58 534h127v-534h-127v534z" />
    <glyph glyph-name="space_uni0326" 
d="M316 -131q0 -62 -37.5 -91t-95.5 -33v49q29 5 46 18t17 37h-61v100h131v-80z" />
    <glyph glyph-name="space_uni0326.alt" 
d="M194 700q0 62 37.5 91.5t95.5 32.5v-49q-29 -5 -46 -18t-17 -37h61v-99h-131v79z" />
    <glyph glyph-name="R.alt" horiz-adv-x="704" 
d="M370 287h-160v-287h-140v744h336q126 0 190 -70q29 -32 45.5 -71.5t16.5 -88.5q0 -77 -40 -132t-109 -79l177 -303h-156zM210 398h180q130 0 130 114q0 57 -33 85t-94 28h-183v-227z" />
    <glyph glyph-name="Racute.alt" horiz-adv-x="704" 
d="M370 287h-160v-287h-140v744h336q126 0 190 -70q29 -32 45.5 -71.5t16.5 -88.5q0 -77 -40 -132t-109 -79l177 -303h-156zM210 398h180q130 0 130 114q0 57 -33 85t-94 28h-183v-227zM340 913h154l-100 -128h-102z" />
    <glyph glyph-name="Rcaron.alt" horiz-adv-x="704" 
d="M370 287h-160v-287h-140v744h336q126 0 190 -70q29 -32 45.5 -71.5t16.5 -88.5q0 -77 -40 -132t-109 -79l177 -303h-156zM210 398h180q130 0 130 114q0 57 -33 85t-94 28h-183v-227zM414 785h-129l-104 123h117l50 -59h2l52 59h117z" />
    <glyph glyph-name="Rcommaaccent.alt" horiz-adv-x="704" 
d="M370 287h-160v-287h-140v744h336q126 0 190 -70q29 -32 45.5 -71.5t16.5 -88.5q0 -77 -40 -132t-109 -79l177 -303h-156zM210 398h180q130 0 130 114q0 57 -33 85t-94 28h-183v-227zM416 -131q0 -62 -37.5 -91t-95.5 -33v49q29 5 46 18t17 37h-61v100h131v-80z" />
    <glyph glyph-name="Ccedilla.alt" horiz-adv-x="752" 
d="M321 -84v76q-65 12 -116.5 45.5t-88.5 83t-56.5 113t-19.5 136.5q0 83 25 154t71.5 123t113 81.5t149.5 29.5q64 0 116 -16t90 -45q45 -35 71.5 -84t33.5 -108h-138q-10 60 -55 98t-119 38q-53 0 -93.5 -20.5t-68 -57t-41.5 -86t-14 -107.5q0 -59 15.5 -108.5t44 -85
t68.5 -55.5t90 -20q42 0 74 13t54.5 35.5t35.5 52t16 63.5h139q-2 -56 -26.5 -108.5t-63.5 -90.5q-66 -66 -176 -79v-57q0 -60 -34.5 -85.5t-99.5 -27.5v49q32 3 48 14t16 36h-61z" />
    <glyph glyph-name="Scedilla.alt" horiz-adv-x="682" 
d="M642 214q0 -49 -17.5 -88.5t-48 -68t-73.5 -46.5t-94 -24v-57q0 -60 -34.5 -85.5t-99.5 -27.5v49q32 3 48 14t16 36h-61v72q-118 17 -182 83.5t-68 166.5h139q15 -144 187 -144q30 0 57 6.5t47.5 20t32 34t11.5 48.5q0 30 -13.5 49.5t-38.5 33t-60.5 23t-79.5 19.5
q-52 12 -98.5 26t-81 38t-55 60.5t-20.5 92.5q0 53 20.5 92.5t57.5 66t87 40t110 13.5q131 0 203.5 -58.5t83.5 -161.5h-135q-8 55 -48 84.5t-106 29.5q-63 0 -100.5 -24.5t-37.5 -69.5q0 -26 13 -43t37.5 -29t59 -21t77.5 -18q52 -11 99.5 -26t84.5 -40.5t59 -65.5t22 -100
z" />
    <glyph glyph-name="ccedilla.alt" horiz-adv-x="569" 
d="M544 194q-5 -80 -53.5 -135t-130.5 -70v-59q0 -60 -34.5 -85.5t-99.5 -27.5v49q32 3 48 14t16 36h-61v77q-46 12 -83 37t-62.5 61t-39 80.5t-13.5 94.5q0 60 19 111.5t54 89.5t84.5 59.5t111.5 21.5q51 0 92.5 -14t72 -39t50 -60.5t26.5 -78.5h-124q-9 44 -38.5 69.5
t-77.5 25.5q-35 0 -61.5 -13.5t-44 -38.5t-26.5 -59t-9 -74q0 -39 9 -72.5t26.5 -58t44 -38.5t61.5 -14q53 0 83.5 29t35.5 82h124v0z" />
    <glyph glyph-name="scedilla.alt" horiz-adv-x="531" 
d="M500 154q0 -71 -45.5 -112.5t-119.5 -53.5v-58q0 -60 -34.5 -85.5t-99.5 -27.5v49q32 3 48 14t16 36h-61v73q-83 14 -129 60t-51 115h122q8 -48 42 -69.5t85 -21.5q53 0 78 20.5t25 52.5q0 20 -10 32.5t-28 21t-43.5 14t-56.5 11.5q-38 7 -73 17t-62 27.5t-43.5 46
t-16.5 73.5q0 38 15.5 67.5t43 50t66.5 31t86 10.5q107 0 161.5 -43.5t64.5 -113.5h-121q-14 71 -106 71q-45 0 -67.5 -18t-22.5 -46q0 -18 10 -29t28 -18.5t43 -12.5l55 -11q38 -7 74 -16.5t64.5 -28t45.5 -49t17 -79.5z" />
    <glyph glyph-name="hyphen.cap" horiz-adv-x="384" 
d="M41 392h303v-125h-303v125z" />
    <glyph glyph-name="endash.cap" 
d="M0 384h500v-109h-500v109z" />
    <glyph glyph-name="emdash.cap" horiz-adv-x="1000" 
d="M200 385h600v-109h-600v109z" />
    <glyph glyph-name="questiondown.cap" horiz-adv-x="565" 
d="M369 605h-140v139h140v-139zM355 505q0 -34 -5 -60t-15.5 -47.5t-28 -41t-41.5 -40.5q-17 -15 -34.5 -28t-31.5 -28t-23 -32.5t-9 -40.5q0 -41 30.5 -66.5t82.5 -25.5q63 0 98 37.5t37 94.5h126q-2 -48 -19 -91.5t-50 -76.5t-82 -52.5t-114 -19.5q-56 0 -100.5 14.5
t-76 41t-48.5 62.5t-17 79q0 58 25 96t58 64q37 29 61.5 47.5t38.5 35.5q13 16 18 33.5t5 44.5h115z" />
    <glyph glyph-name="exclamdown.cap" horiz-adv-x="277" 
d="M206 208v-208h-134v208l33 297h67zM209 605h-140v139h140v-139z" />
    <glyph glyph-name="parenleft.cap" horiz-adv-x="353" 
d="M230 -99q-33 44 -62.5 94.5t-51 108t-34 122t-12.5 136.5q0 71 13 136.5t34.5 123.5t50.5 107.5t62 89.5h104q-56 -89 -92 -202.5t-36 -254.5q0 -140 35.5 -252t92.5 -209h-104v0z" />
    <glyph glyph-name="parenright.cap" horiz-adv-x="353" 
d="M19 -99q29 48 53 100t41 109t26.5 119.5t9.5 132.5q0 142 -36.5 254.5t-93.5 202.5h105q33 -40 62 -89.5t50.5 -107.5t34.5 -123.5t13 -136.5q0 -72 -12.5 -136.5t-34 -122t-51 -108t-62.5 -94.5h-105v0z" />
    <glyph glyph-name="bracketleft.cap" horiz-adv-x="394" 
d="M78 819h273v-100h-149v-717h149v-101h-273v918z" />
    <glyph glyph-name="bracketright.cap" horiz-adv-x="394" 
d="M42 2h148v717h-148v100h273v-918h-273v101z" />
    <glyph glyph-name="braceleft.cap" horiz-adv-x="384" 
d="M322 -99q-50 0 -87.5 9t-63 30.5t-38 57t-12.5 88.5v154q0 37 -20 54.5t-70 19.5v98q50 2 70 19.5t20 53.5v151q0 53 12.5 88.5t38 56.5t63 29.5t87.5 8.5h29v-100h-25q-43 0 -62 -16t-19 -67v-164q0 -46 -17.5 -71.5t-55.5 -36.5v-3q38 -11 55.5 -36t17.5 -71v-168
q0 -50 19 -67t62 -17h25v-101h-29v0z" />
    <glyph glyph-name="braceright.cap" horiz-adv-x="384" 
d="M42 2h19q43 0 62 16.5t19 66.5v167q0 47 18 71.5t56 35.5v3q-38 12 -56 37t-18 71v165q0 50 -19 67t-62 17h-19v100h23q50 0 88 -9t63 -30t37.5 -56.5t12.5 -88.5v-151q0 -36 19 -54t67 -20v-98q-48 -2 -67 -19.5t-19 -53.5v-154q0 -53 -12.5 -88.5t-37.5 -56.5t-63 -30
t-88 -9h-23v101z" />
    <glyph glyph-name="guillemotleft.cap" horiz-adv-x="512" 
d="M285 269v123l159 151v-127l-88 -85v-2l88 -86v-125zM68 269v123l159 151v-127l-88 -85v-2l88 -86v-125z" />
    <glyph glyph-name="guillemotright.cap" horiz-adv-x="512" 
d="M68 118v125l89 86v2l-89 85v127l159 -151v-123zM285 118v125l89 86v2l-89 85v127l159 -151v-123z" />
    <glyph glyph-name="guilsinglleft.cap" horiz-adv-x="311" 
d="M68 267v126l174 158v-132l-98 -88v-2l98 -88v-131z" />
    <glyph glyph-name="guilsinglright.cap" horiz-adv-x="311" 
d="M242 393v-126l-174 -157v131l99 87v2l-99 89v132z" />
    <glyph glyph-name="registered.alt" horiz-adv-x="865" 
d="M433 -18q-80 0 -150 29t-121.5 81t-81 123t-29.5 154q0 84 29.5 155t81 122.5t121.5 81t150 29.5t150 -29.5t121.5 -81t81 -122.5t29.5 -155q0 -83 -29.5 -154t-81 -123t-121.5 -81t-150 -29zM433 28q70 0 129.5 26t103 71.5t68.5 108t25 135.5t-25 136t-68.5 108.5
t-103 71.5t-129.5 26t-130 -26t-104 -71.5t-69 -108.5t-25 -136t25 -135.5t69 -108t104 -71.5t130 -26zM269 583h201q31 0 57 -8t45.5 -23t30.5 -37.5t11 -51.5q0 -37 -19 -63.5t-58 -39.5v-2q32 -9 46.5 -28.5t18.5 -53.5q6 -44 7.5 -73t10.5 -34v-6h-94q-4 3 -6 11.5
t-3.5 21.5t-2.5 29.5t-4 34.5q-3 32 -20 47.5t-52 15.5h-74v-160h-95v420zM364 393h87q34 0 50.5 15.5t16.5 41.5q0 27 -15 42.5t-49 15.5h-90v-115z" />
    <glyph glyph-name="dollar.cap" horiz-adv-x="681" 
d="M312 -6q-70 4 -121.5 24.5t-86.5 52.5t-53 74.5t-20 91.5h137q7 -59 41 -94t103 -43v229q-1 0 -2 1q-53 13 -99 27.5t-80 38t-53 59.5t-19 91q0 48 19 85.5t52.5 64t80 41.5t101.5 18v80h65v-81q112 -9 174 -62t72 -144h-131q-14 88 -115 103v-213q55 -12 103 -27
t83 -39.5t55.5 -61.5t20.5 -94q0 -51 -20 -91t-55 -68.5t-83 -44.5t-104 -19v-116h-65v117zM503 209q0 23 -8 39.5t-24 28t-39.5 20.5t-54.5 17v-215q25 3 48 11.5t40.5 22t27.5 33t10 43.5zM193 553q0 -41 28.5 -62t90.5 -37v199q-55 -5 -87 -31t-32 -69z" />
    <glyph glyph-name="Euro.cap" horiz-adv-x="703" 
d="M30 473h62q12 65 39 118t66 91t89.5 58.5t110.5 20.5q59 0 106.5 -18t81.5 -49.5t54.5 -75t26.5 -95.5h-135q-11 59 -44.5 93t-92.5 34q-68 0 -107.5 -47.5t-53.5 -129.5h192v-64h-199q-1 -10 -1 -19v-19v-21.5t1 -20.5h199v-64h-191q16 -83 58 -126t109 -43
q33 0 58 11.5t43 32t28.5 48t13.5 60.5h129q-3 -56 -22.5 -104.5t-54 -84t-83.5 -56t-111 -20.5q-59 0 -110 19.5t-91.5 56t-68 88.5t-40.5 118h-62v64h54q-1 10 -1 20.5v21.5v19t1 19h-54v64z" />
    <glyph glyph-name="sterling.cap" horiz-adv-x="639" 
d="M46 406h56q-14 29 -24 61.5t-10 70.5q0 48 18 88.5t52.5 70t84 46.5t113.5 17q55 0 102 -14t83 -45q38 -32 59 -79t23 -116h-133q-1 77 -39 111t-95 34q-62 0 -93.5 -31t-31.5 -85q0 -35 11 -66t23 -63h152v-85h-127q2 -11 3 -21t1 -21q0 -48 -23.5 -86t-74.5 -76l2 -3
q30 16 52.5 22t49.5 6q28 0 49 -5.5t39.5 -12t36 -12t40.5 -5.5q32 0 59.5 14.5t47.5 33.5l64 -103q-33 -29 -76.5 -48t-94.5 -19q-39 0 -67 8.5t-52.5 19t-49.5 19.5t-57 9t-59 -15t-52 -32l-70 102q23 16 43 33t34.5 37t23 43t8.5 51q0 16 -2.5 31t-7.5 30h-91v85z" />
    <glyph glyph-name="yen.cap" horiz-adv-x="674" 
d="M83 350h165l-231 395h152l84 -155q14 -26 29 -58t28 -61q15 -33 29 -67h2q15 34 30 67q13 29 28 61t29 58l82 155h149l-232 -395h168v-63h-189v-80h189v-64h-189v-143h-134v143h-189v64h189v80h-189v63z" />
    <glyph glyph-name="zero.cap" horiz-adv-x="710" 
d="M355 -18q-71 0 -128 27.5t-97.5 78.5t-62.5 123t-22 161t22.5 161t63.5 122.5t98 78t127 27.5t127.5 -27t97.5 -77.5t62 -122.5t22 -162q0 -89 -21.5 -161t-62 -123t-97.5 -78.5t-129 -27.5zM356 94q44 0 75.5 19.5t52 55.5t30.5 87.5t10 115.5q0 63 -10 114.5t-31 88
t-52.5 56.5t-74.5 20q-44 0 -75.5 -20t-52.5 -56.5t-31 -88t-10 -114.5t10 -114.5t31 -87.5t52.5 -56t75.5 -20z" />
    <glyph glyph-name="one.cap" horiz-adv-x="436" 
d="M211 510h-172v91q38 1 72 9.5t61 26.5t45 46t24 67h107v-750h-137v510z" />
    <glyph glyph-name="two.cap" horiz-adv-x="631" 
d="M37 0q2 69 23 117.5t56 88.5q48 53 108.5 93t115.5 77q52 33 81 64.5t29 82.5q0 57 -33.5 91t-93.5 34q-66 0 -100 -40q-38 -41 -38 -120h-134q0 60 15.5 104t44.5 79q33 42 88.5 65.5t130.5 23.5q61 0 109.5 -18t82 -49t51 -74t17.5 -92q0 -42 -11 -73.5t-30.5 -56.5
t-46 -46t-57.5 -42q-29 -22 -63 -44t-66.5 -45t-59.5 -48t-42 -53h369v-119h-546v0z" />
    <glyph glyph-name="three.cap" horiz-adv-x="653" 
d="M333 -18q-134 0 -217 66q-43 35 -65.5 85t-23.5 110h131q4 -68 46 -110t124 -42q67 0 107 33.5t40 96.5q0 60 -42 90.5t-119 30.5h-46v99h43q70 0 107 28.5t37 79.5t-36.5 79.5t-92.5 28.5q-36 0 -62.5 -10.5t-45 -29.5t-28 -44t-10.5 -53h-130q1 52 20 96t54.5 76
t87 50.5t117.5 18.5q56 0 103.5 -14t82.5 -40.5t55 -65t20 -87.5q0 -61 -34 -97.5t-91 -55.5v-2q149 -41 149 -188q0 -57 -22.5 -100t-60.5 -71.5t-89 -43t-109 -14.5z" />
    <glyph glyph-name="four.cap" horiz-adv-x="668" 
d="M404 174h-354v123l362 455h125v-475h116v-103h-116v-174h-133v174zM148 272l38 2q17 1 35.5 2t35.5 1h147v215q0 16 0.5 35.5t2.5 36.5q1 20 3 40h-2q-11 -18 -23 -36q-11 -15 -23.5 -32.5t-23.5 -31.5l-107 -136q-11 -14 -25 -30.5t-27 -30.5q-15 -17 -31 -33v-2z" />
    <glyph glyph-name="five.cap" horiz-adv-x="638" 
d="M316 -17q-61 0 -112.5 16.5t-89 45.5t-60 70t-26.5 91h135q11 -49 48 -79.5t101 -30.5q67 0 108 41.5t41 110.5q0 35 -11.5 62.5t-31 47t-45.5 29.5t-56 10q-51 0 -85 -17.5t-53 -41.5h-130l79 406h427v-114h-328l-41 -191h2q29 31 67.5 47.5t94.5 16.5q49 0 94.5 -17.5
t80 -51t55 -81t20.5 -107.5t-21 -108.5t-59 -83t-90 -53t-114 -18.5z" />
    <glyph glyph-name="six.cap" horiz-adv-x="668" 
d="M354 -18q-71 0 -123.5 23.5t-89.5 64.5q-51 52 -72.5 127t-21.5 175q-1 89 19 162t62 127q39 48 94 74t131 26q57 0 101.5 -16t76 -42.5t50.5 -61.5t25 -72h-132q-3 16 -11.5 32t-23.5 28.5t-35.5 20t-47.5 7.5q-90 0 -132 -67t-47 -195h2q67 105 192 105q52 0 99 -19.5
t82 -54t55.5 -81.5t20.5 -102q0 -56 -21 -103.5t-57.5 -82.5t-87 -55t-108.5 -20zM350 88q31 0 58.5 11t47.5 31.5t31.5 48.5t11.5 62t-11.5 62t-31.5 48.5t-47.5 32t-59.5 11.5q-35 0 -64 -11.5t-49.5 -31.5t-32 -48t-11.5 -62t12 -62.5t33.5 -48.5t50.5 -31.5t62 -11.5z
" />
    <glyph glyph-name="seven.cap" horiz-adv-x="591" 
d="M135 0q5 100 32 193.5t68 175t92.5 148.5t106.5 113v2q-23 -2 -49 -3q-23 -1 -51.5 -1.5t-59.5 -0.5h-243v117h536v-107q-53 -50 -103 -117t-89.5 -148t-65.5 -175t-30 -197h-144v0z" />
    <glyph glyph-name="eight.cap" horiz-adv-x="666" 
d="M336 -18q-60 0 -114.5 14.5t-95.5 43t-65 71.5t-24 101q0 73 41.5 121.5t113.5 69.5v3q-60 20 -90.5 59.5t-30.5 94.5q0 45 19.5 82.5t54 63.5t83 40.5t106.5 14.5t106 -14t82.5 -40t53.5 -62.5t19 -82.5q0 -54 -30 -94t-89 -60v-3q73 -20 113.5 -70t40.5 -120
q0 -59 -23.5 -102.5t-63.5 -72.5t-93.5 -43.5t-113.5 -14.5zM333 448q63 0 97.5 28.5t34.5 76.5q0 50 -34.5 79t-97.5 29q-62 0 -96.5 -29t-34.5 -79q0 -48 34.5 -76.5t96.5 -28.5zM336 89q72 0 114 35t42 95q0 62 -41.5 98.5t-116.5 36.5q-74 0 -116 -36.5t-42 -98.5
q0 -61 42.5 -95.5t117.5 -34.5z" />
    <glyph glyph-name="nine.cap" horiz-adv-x="669" 
d="M327 -18q-57 0 -104.5 15.5t-82 42.5t-55.5 63.5t-26 77.5h133q7 -36 39.5 -65t92.5 -29q78 0 119 55q46 61 52 198h-2q-35 -45 -82 -70.5t-109 -25.5q-54 0 -101.5 19.5t-82.5 53.5t-56 81t-21 103t21 103.5t58.5 82.5t89 54.5t112.5 19.5q60 0 108.5 -17.5t84.5 -48.5
q59 -48 83.5 -127.5t24.5 -194.5q0 -103 -21.5 -183t-72.5 -131q-36 -37 -86 -57t-116 -20zM323 348q72 0 115 43t43 111q0 34 -12 62.5t-33 48.5t-50 31.5t-62 11.5q-34 0 -62 -11.5t-48.5 -31.5t-31.5 -48.5t-11 -61.5t11.5 -61.5t31.5 -49.5t48 -32.5t61 -11.5z" />
    <glyph glyph-name="percent.cap" horiz-adv-x="956" 
d="M641 744h88l-415 -744h-88zM222 328q-41 0 -75 15.5t-59 43.5t-39 68t-14 90q0 49 14 89t39 68t59.5 43.5t74.5 15.5q41 0 75 -15t59 -43t38.5 -68t13.5 -90t-13.5 -90t-38 -68t-59 -43.5t-75.5 -15.5zM733 -18q-41 0 -75.5 15.5t-59.5 44t-38.5 68.5t-13.5 90
q0 49 14 89t39 68t59.5 43.5t74.5 15.5q41 0 75 -15t59 -43.5t38.5 -68.5t13.5 -89q0 -50 -13.5 -90t-38 -68.5t-59 -44t-75.5 -15.5zM222 408q42 0 61.5 38.5t19.5 98.5q0 29 -5 54.5t-15 44t-25.5 29t-35.5 10.5q-40 0 -59.5 -39t-19.5 -99t19.5 -98.5t59.5 -38.5zM733 63
q41 0 60.5 38.5t19.5 98.5q0 29 -5 54.5t-15.5 44t-25.5 29t-34 10.5q-41 0 -60 -39.5t-19 -98.5t19 -98t60 -39z" />
    <glyph glyph-name="perthousand.cap" horiz-adv-x="1377" 
d="M636 744h88l-415 -744h-87zM222 328q-41 0 -75 15.5t-59 43.5t-39 68t-14 90q0 49 14 89t39 68t59.5 43.5t74.5 15.5q41 0 75 -15t59 -43t38.5 -68t13.5 -90t-13.5 -90t-38 -68t-59 -43.5t-75.5 -15.5zM724 -18q-41 0 -75.5 15.5t-59 44t-38.5 68.5t-14 90q0 49 14 89
t39 68t59.5 43.5t74.5 15.5q41 0 75.5 -15t59 -43.5t38.5 -68.5t14 -89q0 -50 -14 -90t-38.5 -68.5t-59 -44t-75.5 -15.5zM222 408q42 0 61.5 38.5t19.5 98.5q0 29 -5 54.5t-15 44t-25.5 29t-35.5 10.5q-40 0 -59.5 -39t-19.5 -99t19.5 -98.5t59.5 -38.5zM724 63
q42 0 61 38.5t19 98.5q0 29 -5 54.5t-15 44t-25 29t-35 10.5q-40 0 -59.5 -39.5t-19.5 -98.5q0 -60 19.5 -98.5t59.5 -38.5zM1155 -18q-41 0 -75.5 15.5t-59.5 44t-39 68.5t-14 90q0 49 14.5 89t39.5 68t59.5 43.5t74.5 15.5q41 0 75 -15t59 -43.5t38.5 -68.5t13.5 -89
q0 -50 -13.5 -90t-38 -68.5t-59 -44t-75.5 -15.5zM1155 63q41 0 60.5 38.5t19.5 98.5q0 29 -5 54.5t-15.5 44t-25.5 29t-34 10.5q-41 0 -60 -39.5t-19 -98.5t19 -98t60 -39z" />
    <glyph glyph-name="dollar.tab" horiz-adv-x="650" 
d="M298 -7q-65 4 -113.5 24t-81 51t-50 71.5t-19.5 87.5h132q7 -57 37.5 -90t94.5 -41v218q-54 13 -97.5 28t-74.5 37.5t-48 57t-17 86.5q0 46 18 82t49.5 61t75 39.5t94.5 16.5v77h62v-78q104 -8 163 -58.5t67 -138.5h-126q-12 83 -104 98v-202q55 -13 100.5 -28t78 -39
t50 -59t17.5 -87q0 -49 -19 -87.5t-52 -65.5t-78 -42.5t-97 -18.5v-110h-62v110zM475 200q0 45 -29 65t-86 35v-205q24 3 44.5 11t36.5 21.5t25 31.5t9 41zM190 529q0 -41 26 -61t82 -34v190q-51 -5 -79.5 -29.5t-28.5 -65.5z" />
    <glyph glyph-name="Euro.tab" horiz-adv-x="650" 
d="M24 453h59q11 62 36.5 112.5t62.5 86.5t84.5 56t102.5 20t99.5 -17t76.5 -47.5t51.5 -72.5t24.5 -91h-129q-10 56 -40 88.5t-85 32.5q-63 0 -99.5 -45t-50.5 -123h174v-62h-180q-1 -9 -1 -18v-18v-20.5t1 -19.5h180v-62h-173q15 -78 54.5 -119t101.5 -41q30 0 53 11
t39 30.5t25.5 46t12.5 57.5h125q-3 -54 -21.5 -100.5t-51 -80.5t-78.5 -53.5t-104 -19.5q-55 0 -103 18.5t-85.5 53.5t-64 84.5t-38.5 112.5h-59v62h51q-1 10 -1 19.5v20.5v18t1 18h-51v62z" />
    <glyph glyph-name="sterling.tab" horiz-adv-x="650" 
d="M63 388h54q-13 29 -23 59t-10 68q0 45 17 84t50 67.5t80.5 44.5t108.5 16q53 0 97 -13.5t79 -42.5q36 -30 56.5 -75.5t22.5 -111.5h-129q-1 74 -36.5 106t-90.5 32q-59 0 -88 -29.5t-29 -80.5q0 -33 10.5 -63t22.5 -61h143v-81h-120q3 -20 3 -39q0 -46 -22 -82t-71 -74
l2 -3q29 15 50.5 21t48.5 6t46.5 -5t36.5 -11.5t33.5 -11.5t38.5 -5q31 0 56.5 14t45.5 32l61 -99q-32 -28 -73.5 -46t-89.5 -18q-37 0 -64 8.5t-50 18t-46.5 18t-53.5 8.5q-32 0 -57.5 -14t-48.5 -31l-68 98q44 31 74 67t30 89q0 16 -2.5 30.5t-7.5 28.5h-87v81z" />
    <glyph glyph-name="yen.tab" horiz-adv-x="650" 
d="M82 335h168l-214 378h142l75 -144q12 -25 25 -54.5t24 -55.5q12 -31 25 -61h2q12 30 25 61q11 26 24 55.5t26 54.5l74 144h139l-214 -378h170v-61h-182v-76h182v-61h-182v-137h-128v137h-181v61h181v76h-181v61z" />
    <glyph glyph-name="cent.tab" horiz-adv-x="650" 
d="M309 -14q-56 6 -100 30t-75 61t-47.5 85.5t-16.5 103.5t16.5 104t47.5 86.5t75.5 61t99.5 29.5v88h61v-88q91 -8 146 -60.5t68 -133.5h-123q-8 38 -31 63.5t-60 32.5v-365q41 8 65 36.5t29 74.5h121q-6 -89 -62.5 -145.5t-152.5 -64.5v-109h-61v110zM198 266
q0 -70 27.5 -119.5t83.5 -61.5v363q-56 -12 -83.5 -61.5t-27.5 -120.5z" />
    <glyph glyph-name="florin.tab" horiz-adv-x="650" 
d="M133 428h118l23 156q5 34 16.5 60t31.5 44q32 29 83 35.5t112 -1.5v-95q-28 2 -48.5 1t-34.5 -7t-22 -18.5t-11 -33.5l-20 -141h127v-87h-140l-51 -363q-5 -35 -16 -61.5t-30 -43.5q-28 -26 -71.5 -31t-96.5 2v90q18 -1 32.5 0t25 6.5t17.5 17t10 31.5l51 352h-106v87z
" />
    <glyph glyph-name="currency.tab" horiz-adv-x="650" 
d="M325 227q51 0 78.5 36.5t27.5 93.5t-27.5 94t-78.5 37t-79 -37t-28 -94t28 -93.5t79 -36.5zM82 169l69 69q-33 51 -33 119q0 67 33 118l-69 70l64 61l68 -70q23 15 50.5 23.5t60.5 8.5q32 0 60 -8.5t51 -23.5l69 70l63 -61l-69 -70q32 -52 32 -118q0 -32 -8.5 -62.5
t-23.5 -55.5l69 -70l-63 -62l-69 70q-47 -30 -111 -30q-65 0 -110 30l-69 -70z" />
    <glyph glyph-name="zero.tab" horiz-adv-x="650" 
d="M324 -17q-63 0 -114 26t-87.5 74.5t-56.5 117.5t-20 155q0 87 20.5 156t57 117t88 73.5t113.5 25.5q63 0 114.5 -25.5t87.5 -73.5t56 -117t20 -156q0 -86 -19.5 -155t-55.5 -117.5t-88 -74.5t-116 -26zM325 91q38 0 65 18.5t44 53t25 83.5t8 110q0 60 -8 109t-25.5 84
t-44.5 54t-64 19t-64 -19t-44.5 -53.5t-26 -84t-8.5 -109.5t8.5 -109t26 -83.5t44.5 -53.5t64 -19z" />
    <glyph glyph-name="one.tab" horiz-adv-x="650" 
d="M314 478h-188v88q98 2 151.5 38.5t65.5 113.5h103v-718h-132v478z" />
    <glyph glyph-name="two.tab" horiz-adv-x="650" 
d="M58 0q2 66 21.5 112.5t53.5 84.5q46 50 104.5 89t111.5 74q25 16 44 30.5t32.5 31t20.5 36t7 43.5q0 54 -32 86.5t-89 32.5q-62 0 -95 -38q-36 -39 -36 -116h-129q0 57 14 99t42 77q32 40 85 62.5t125 22.5q59 0 105.5 -17t78.5 -47t49 -70.5t17 -88.5q0 -39 -10.5 -69
t-29 -54t-44 -44.5t-54.5 -39.5q-28 -21 -59.5 -41.5t-62 -42t-56.5 -44.5t-42 -50q0 -4 -1 -5h352v-114h-523v0z" />
    <glyph glyph-name="three.tab" horiz-adv-x="650" 
d="M333 -17q-128 0 -206 63q-42 33 -63 81t-22 106h126q3 -65 42.5 -105t117.5 -40q64 0 100.5 31.5t36.5 92.5q0 57 -38.5 86t-112.5 29h-44v95h41q66 0 101 27t35 76q0 48 -34 75.5t-88 27.5q-34 0 -59 -10.5t-42 -28t-26 -41t-10 -50.5h-124q1 49 18.5 91.5t51.5 73
t82.5 48t111.5 17.5q54 0 99.5 -13.5t78.5 -39t51.5 -62.5t18.5 -83q0 -58 -33 -93t-87 -53v-2q143 -40 143 -180q0 -54 -21 -95t-57 -68.5t-84.5 -41.5t-103.5 -14z" />
    <glyph glyph-name="four.tab" horiz-adv-x="650" 
d="M391 167h-339v117l347 436h120v-454h94v-99h-94v-167h-128v167zM147 261l36 2q16 1 34 2t33 1h141v204q0 15 0.5 33t1.5 35q1 19 3 39h-2l-22 -34q-10 -14 -21.5 -31t-22.5 -31l-102 -129q-11 -14 -24.5 -29t-25.5 -29q-14 -16 -29 -31v-2z" />
    <glyph glyph-name="five.tab" horiz-adv-x="650" 
d="M322 -16q-59 0 -108 15.5t-85 43.5t-57.5 67.5t-25.5 86.5h130q10 -47 45 -75.5t97 -28.5q65 0 104 39.5t39 104.5q0 33 -10.5 59.5t-29.5 45t-44 28t-54 9.5q-48 0 -81 -16.5t-51 -39.5h-124l75 389h408v-109h-314l-38 -183h2q27 29 64 45t91 16q47 0 90 -17t76 -48.5
t53 -77t20 -102.5q0 -58 -20.5 -104.5t-56.5 -79.5t-86 -50.5t-109 -17.5z" />
    <glyph glyph-name="six.tab" horiz-adv-x="650" 
d="M343 -17q-67 0 -117 22.5t-85 61.5q-48 51 -68.5 122t-20.5 167q-1 85 18 155t59 121q37 47 89 71.5t124 24.5q55 0 97.5 -15t72.5 -40.5t48.5 -59t24.5 -69.5h-128q-3 15 -11 30.5t-22 27.5t-34 19.5t-46 7.5q-84 0 -123.5 -64.5t-44.5 -185.5h2q33 50 76.5 75t105.5 25
q50 0 94 -18.5t77 -51.5t52 -78t19 -98q0 -54 -19.5 -99.5t-54.5 -79t-82.5 -52.5t-102.5 -19zM339 84q30 0 55.5 11t44 30.5t29 46t10.5 58.5q0 33 -10.5 60t-29 46.5t-44.5 30t-56 10.5q-67 0 -107 -40t-40 -106q0 -32 11 -59t31 -46.5t47 -30.5t59 -11z" />
    <glyph glyph-name="seven.tab" horiz-adv-x="650" 
d="M171 0q5 95 30.5 184.5t64.5 167.5t88 142t100 108v2q-22 -2 -47 -3q-22 -1 -49.5 -1.5t-56.5 -0.5h-228v113h509v-103q-50 -48 -97.5 -112t-85 -141.5t-61.5 -167t-28 -188.5h-139v0z" />
    <glyph glyph-name="eight.tab" horiz-adv-x="650" 
d="M327 -17q-56 0 -106.5 13.5t-89 41t-61 69t-22.5 96.5q0 69 38 115.5t107 66.5v3q-57 19 -86 57t-29 91q0 43 18.5 78.5t51.5 61t78.5 39t99.5 13.5t99 -13t78 -38t51 -60t18 -79q0 -52 -28.5 -90.5t-85.5 -57.5v-3q69 -18 106 -66t37 -115q0 -56 -21.5 -98t-59 -70
t-87.5 -41.5t-106 -13.5zM325 429q57 0 89 27t32 74t-32 74.5t-89 27.5t-89.5 -27.5t-32.5 -74.5t32.5 -74t89.5 -27zM327 85q66 0 104 33.5t38 90.5q0 60 -37.5 94.5t-105.5 34.5t-106 -34.5t-38 -94.5q0 -58 38 -91t107 -33z" />
    <glyph glyph-name="nine.tab" horiz-adv-x="650" 
d="M320 -17q-55 0 -100.5 15t-78.5 40.5t-53.5 60.5t-24.5 74h129q3 -17 12.5 -33t25 -29t37 -20.5t50.5 -7.5q73 0 112 52q23 29 33.5 76.5t13.5 113.5h-2q-32 -43 -75.5 -67.5t-103.5 -24.5q-51 0 -96 18.5t-78.5 51.5t-52.5 78t-19 99q0 53 19.5 98.5t55 78.5t84.5 52
t107 19t103.5 -17t80.5 -46q56 -46 78.5 -121.5t22.5 -186.5q0 -99 -20 -175.5t-68 -124.5q-35 -36 -82 -55t-110 -19zM316 334q68 0 107.5 40.5t39.5 106.5q0 32 -11 59t-30.5 46.5t-46.5 30t-58 10.5q-32 0 -58.5 -11t-45.5 -30.5t-29.5 -46t-10.5 -58.5t10.5 -59
t29.5 -46.5t45 -30.5t58 -11z" />
    <glyph glyph-name="percent.tab" horiz-adv-x="900" 
d="M216 318q-39 0 -71.5 14.5t-56 41.5t-37 65t-13.5 85q0 46 13.5 83.5t37.5 64.5t56.5 41.5t70.5 14.5t70.5 -14.5t56 -41t36.5 -64t13 -84.5t-13 -85t-36.5 -65t-55.5 -41.5t-71 -14.5zM606 712h85l-397 -712h-85zM685 -17q-39 0 -71.5 14.5t-56 41.5t-36.5 64.5
t-13 84.5t13.5 85t37 64.5t56 41t70.5 14.5q39 0 71.5 -14.5t56 -41t36.5 -64.5t13 -85t-13 -84.5t-36.5 -64.5t-56 -41.5t-71.5 -14.5zM216 395q38 0 57 36t19 93q0 55 -19 92t-57 37t-57 -36t-19 -93t19 -93t57 -36zM685 60q39 0 57.5 35.5t18.5 92.5q0 56 -19 93t-57 37
t-56.5 -36.5t-18.5 -93.5q0 -56 18.5 -92t56.5 -36z" />
    <glyph glyph-name="perthousand.tab" horiz-adv-x="1200" 
d="M569 712h84l-396 -712h-84zM1000 -17q-37 0 -67.5 14.5t-52.5 40.5t-34.5 63.5t-12.5 83.5t12.5 83t35 63.5t53 40.5t66.5 14q37 0 67.5 -14t52.5 -40t34.5 -63t12.5 -84q0 -46 -12.5 -83.5t-34.5 -63.5t-52.5 -40.5t-67.5 -14.5zM1000 60q35 0 51 34.5t16 90.5
q0 55 -16.5 91t-50.5 36t-49 -35t-15 -92q0 -55 15 -90t49 -35zM626 -17q-37 0 -67.5 14.5t-52.5 40.5t-34.5 63.5t-12.5 83.5t12.5 83t35 63.5t53 40.5t66.5 14q37 0 67.5 -14t52.5 -40t34.5 -63t12.5 -84q0 -46 -12.5 -83.5t-34.5 -63.5t-52.5 -40.5t-67.5 -14.5zM626 60
q35 0 51 34.5t16 90.5q0 55 -16.5 91t-50.5 36t-49 -35t-15 -92q0 -55 15 -90t49 -35zM200 325q-37 0 -67.5 14.5t-52.5 40.5t-34.5 63.5t-12.5 83.5t12.5 83t35 63.5t53 40.5t66.5 14q37 0 67.5 -14t52.5 -40t34.5 -63.5t12.5 -83.5t-12.5 -83.5t-34.5 -63.5t-52.5 -40.5
t-67.5 -14.5zM200 401q35 0 50.5 34.5t15.5 91.5q0 54 -16 90.5t-50 36.5t-49.5 -35.5t-15.5 -91.5q0 -55 15.5 -90.5t49.5 -35.5z" />
    <glyph glyph-name="minus.tab" horiz-adv-x="650" 
d="M81 391h488v-101h-488v101z" />
    <glyph glyph-name="multiply.tab" horiz-adv-x="650" 
d="M91 173l165 166l-164 165l70 70l163 -165l164 165l71 -70l-165 -165l165 -165l-71 -70l-164 165l-164 -165z" />
    <glyph glyph-name="divide.tab" horiz-adv-x="650" 
d="M256 602h139v-130h-139v130zM85 392h481v-102h-481v102zM256 209h139v-129h-139v129z" />
    <glyph glyph-name="plusminus.tab" horiz-adv-x="650" 
d="M81 442h191v170h107v-170h190v-100h-190v-171h-107v171h-191v100zM81 98h488v-98h-488v98z" />
    <glyph glyph-name="notequal.tab" horiz-adv-x="650" 
d="M87 474h271l58 113h88l-58 -113h121v-97h-170l-54 -106h224v-97h-273l-57 -113h-88l57 113h-119v97h168l54 106h-222v97z" />
    <glyph glyph-name="approxequal.tab" horiz-adv-x="650" 
d="M450 357q-30 0 -63.5 6t-66 13t-61 13t-49.5 6q-40 0 -44 -45h-88q2 76 36.5 112t89.5 36q30 0 63 -6t64.5 -13.5t59.5 -13.5t47 -6q23 0 33 11t12 32h89q-1 -69 -30.5 -107t-91.5 -38zM450 155q-30 0 -63.5 6t-66 13t-61 13t-49.5 6q-40 0 -44 -45h-88q2 77 36.5 112.5
t89.5 35.5q30 0 63 -6t64.5 -13.5t59.5 -13.5t47 -6q23 0 33 11t12 32h89q-1 -69 -30.5 -107t-91.5 -38z" />
    <glyph glyph-name="lessequal.tab" horiz-adv-x="650" 
d="M100 98h446v-98h-446v98zM100 286v132l446 152v-109l-211 -68q-25 -8 -52.5 -15t-50.5 -13q-27 -7 -55 -13v-2q28 -6 55 -12q23 -5 50.5 -11.5t52.5 -14.5l211 -67v-111z" />
    <glyph glyph-name="greaterequal.tab" horiz-adv-x="650" 
d="M550 0h-446v98h446v-98zM104 134v111l211 67q24 8 52 14.5t51 11.5q27 6 55 12v2q-28 6 -55 13q-23 6 -51 13t-52 15l-211 68v109l446 -152v-132z" />
    <glyph glyph-name="less.tab" horiz-adv-x="650" 
d="M100 262v121l446 179v-113l-217 -79q-21 -8 -46 -16t-47 -15l-52 -16v-2q26 -7 52 -15q22 -7 47 -15t46 -15l217 -77v-116z" />
    <glyph glyph-name="equal.tab" horiz-adv-x="650" 
d="M87 474h480v-99h-480v99zM87 273h480v-99h-480v99z" />
    <glyph glyph-name="greater.tab" horiz-adv-x="650" 
d="M550 383v-121l-446 -179v113l218 79q20 8 45 16t47 15l52 16v2q-26 7 -52 15q-22 7 -47 14.5t-45 15.5l-218 77v116z" />
    <glyph glyph-name="space.tab" horiz-adv-x="325" 
 />
    <glyph glyph-name="comma.tab" horiz-adv-x="325" 
d="M95 -107q29 8 46 31.5t17 69.5v6h-64v139h138v-138q0 -82 -37.5 -122.5t-99.5 -47.5v62z" />
    <glyph glyph-name="period.tab" horiz-adv-x="325" 
d="M94 139h138v-139h-138v139z" />
    <glyph glyph-name="colon.tab" horiz-adv-x="325" 
d="M93 457h139v-138h-139v138zM93 139h139v-139h-139v139z" />
    <glyph glyph-name="semicolon.tab" horiz-adv-x="325" 
d="M93 457h139v-138h-139v138zM94 -107q29 8 46.5 31.5t17.5 69.5v6h-65v139h139v-138q0 -82 -38 -122.5t-100 -47.5v62z" />
    </font>
</defs>
</svg>
